请选择 进入手机版 | 继续访问电脑版
 找回密码
 立即注册
搜索

本文来自

影视资源

影视资源

订阅|关注 (3)

本站提供720p|1080p|4K 等超高清分辨率电影电视剧免费下载。

精选帖子

13万

主题

13万

帖子

39万

积分

网站编辑

Rank: 8Rank: 8

积分
397653

[超清电影] 暴力行为/暴力行动 Acts.of.Violence.2018.720p.WEB-DL.DD5.1.H264-FGT 2.6GB

[复制链接]
1030 99mp4 发表于 7 天前


◎译  名 暴力行为/暴力行动
◎片  名 Acts of Violence
◎年  代 2018
◎产  地 美国
◎类  别 动作
◎语  言 英语
◎上映日期 2018-01-12(美国)
◎IMDb评分  7.2/10 from 6 users
◎IMDb链接  http://www.imdb.com/title/tt6684714/
◎久久MP4整理 http://www.99mp4.net
◎片  长 86分钟
◎导  演 Brett Donowho
◎主  演 科尔·豪瑟 Cole Hauser
      布鲁斯·威利斯 Bruce Willis
      肖恩·阿什莫 Shawn Ashmore
      艾什顿·霍尔姆斯 Ashton Holmes
      梅丽莎·博洛纳 Melissa Bolona
      肖恩·布鲁斯南 Sean Brosnan
      索菲亚·布什 Sophia Bush
      迈克·艾普斯 Mike Epps
      蒂凡尼·布劳威尔 Tiffany Brouwer
      珍娜.B.凯利 Jenna B. Kelly
      帕特里克·圣埃斯普利特 Patrick St. Esprit
      博伊德·肯斯特纳 Boyd Kestner
      David Vegh

◎简  介

  布鲁斯·威利斯与EFO Films签订两部新片。一部是将于3月27日开拍的[暴力行为](Acts Of Violencen,暂译),该片由布莱特·多诺霍([银瀑])执导。

Video
ID                                       : 1
Format                                   : AVC
Format/Info                              : Advanced Video Codec
Format profile                           : Main@L3.1
Format settings                          : 2 Ref Frames
Format settings, CABAC                   : No
Format settings, ReFrames                : 2 frames
Codec ID                                 : V_MPEG4/ISO/AVC
Duration                                 : 1 h 26 min
Bit rate                                 : 4 051 kb/s
Width                                    : 1 280 pixels
Height                                   : 530 pixels
Display aspect ratio                     : 2.40:1
Frame rate mode                          : Constant
Frame rate                               : 23.976 (24000/1001) FPS
Color space                              : YUV
Chroma subsampling                       : 4:2:0
Bit depth                                : 8 bits
Scan type                                : Progressive
Bits/(Pixel*Frame)                       : 0.249
Stream size                              : 2.46 GiB (91%)
Title                                    : Acts.of.Violence.2018.720p.WEB-DL.DD5.1.H264-FGT
Language                                 : English
Default                                  : Yes
Forced                                   : No
Color range                              : Limited
Color primaries                          : BT.709
Transfer characteristics                 : BT.709
Matrix coefficients                      : BT.709
Audio
ID                                       : 2
Format                                   : AC-3
Format/Info                              : Audio Coding 3
Codec ID                                 : A_AC3
Duration                                 : 1 h 26 min
Bit rate mode                            : Constant
Bit rate                                 : 384 kb/s
Channel(s)                               : 6 channels
Channel positions                        : Front: L C R, Side: L R, LFE
Sampling rate                            : 48.0 kHz
Frame rate                               : 31.250 FPS (1536 SPF)
Bit depth                                : 16 bits
Compression mode                         : Lossy
Stream size                              : 238 MiB (9%)
Title                                    : Acts.of.Violence.2018.720p.WEB-DL.DD5.1.H264-FGT
Language                                 : English
Service kind                             : Complete Main
Default                                  : Yes
Forced                                   : No
Menu
00:00:00.000                             : en:1
00:10:31.000                             : en:2
00:19:56.000                             : en:3
00:26:10.000                             : en:4
00:34:50.000                             : en:5
00:42:27.000                             : en:6
00:51:49.000                             : en:7
01:00:58.000                             : en:8
01:07:17.000                             : en:9
01:20:49.000                             : en:10












下载地址:
暴力行为/暴力行动 Acts.of.Violence.2018.720p.WEB-DL.DD5.1.H264-FGT 2.6GB
回复

使用道具 举报

您需要登录后才可以回帖 登录 | 立即注册

本版积分规则

快速回复 返回顶部 返回列表