找回密码
 立即注册
搜索

本文来自

影视资源

影视资源

订阅|关注 (32)

本站提供720p|1080p|4K 等超高清分辨率电影电视剧免费下载。

精选帖子

16万

主题

16万

帖子

48万

积分

网站编辑

Rank: 8Rank: 8

积分
484391

[超清电影] 女变态杀手 Lady.Psycho.Killer.2015.1080p.AMZN.WEBRip.DD5.1.x264-QOQ 3.4GB

[复制链接]
4750 99mp4 发表于 2018-3-13 23:03:17


◎译  名 女变态杀手
◎片  名 Lady Psycho Killer
◎年  代 2015
◎产  地 美国
◎类  别 喜剧/恐怖
◎语  言 英语
◎IMDb评分  6.8/10 from 37 users
◎IMDb链接  http://www.imdb.com/title/tt3723788/
◎久久MP4整理 http://www.99mp4.net
◎片  长 82min
◎导  演 Nathan Oliver

◎简  介

  Lady Psycho Killer is a film ready to rock you to the core. A doe-eyed knife-wielding killer is on the loose in a small town slicing and dicing men of questionableintent left and right. As her brutality leaves a town littered with corpses| her unquenchable blood-lust is lost on her young lover who is willing to pursue herregardless of the obvious warning signs of psychosis. Will he meet his end at the end of her blade? She decides who lives or dies!

Video
ID                                       : 1
Format                                   : AVC
Format/Info                              : Advanced Video Codec
Format profile                           : [email protected]
Format settings                          : CABAC / 4 Ref Frames
Format settings, CABAC                   : Yes
Format settings, ReFrames                : 4 frames
Codec ID                                 : V_MPEG4/ISO/AVC
Duration                                 : 1 h 21 min
Bit rate mode                            : Variable
Bit rate                                 : 5 376 kb/s
Maximum bit rate                         : 15.0 Mb/s
Width                                    : 1 920 pixels
Height                                   : 1 040 pixels
Display aspect ratio                     : 1.85:1
Frame rate mode                          : Constant
Frame rate                               : 23.976 (24000/1001) FPS
Color space                              : YUV
Chroma subsampling                       : 4:2:0
Bit depth                                : 8 bits
Scan type                                : Progressive
Bits/(Pixel*Frame)                       : 0.112
Stream size                              : 3.05 GiB (89%)
Default                                  : Yes
Forced                                   : No
Color range                              : Limited
Color primaries                          : BT.709
Transfer characteristics                 : BT.709
Matrix coefficients                      : BT.709
Audio
ID                                       : 2
Format                                   : E-AC-3
Format/Info                              : Enhanced Audio Coding 3
Codec ID                                 : A_EAC3
Duration                                 : 1 h 21 min
Bit rate mode                            : Constant
Bit rate                                 : 640 kb/s
Channel(s)                               : 6 channels
Channel positions                        : Front: L C R, Side: L R, LFE
Sampling rate                            : 48.0 kHz
Frame rate                               : 187.500 FPS (256 SPF)
Compression mode                         : Lossy
Stream size                              : 372 MiB (11%)
Language                                 : English
Service kind                             : Complete Main
Default                                  : Yes
Forced                                   : No
Text #1
ID                                       : 3
Format                                   : UTF-8
Codec ID                                 : S_TEXT/UTF8
Codec ID/Info                            : UTF-8 Plain Text
Duration                                 : 1 h 18 min
Bit rate                                 : 66 b/s
Count of elements                        : 1157
Stream size                              : 38.2 KiB (0%)
Language                                 : English
Default                                  : No
Forced                                   : No
Text #2
ID                                       : 4
Format                                   : UTF-8
Codec ID                                 : S_TEXT/UTF8
Codec ID/Info                            : UTF-8 Plain Text
Duration                                 : 1 h 18 min
Bit rate                                 : 75 b/s
Count of elements                        : 1333
Stream size                              : 43.4 KiB (0%)
Title                                    : SDH
Language                                 : English
Default                                  : No
Forced                                   : No






下载地址:
女变态杀手 Lady.Psycho.Killer.2015.1080p.AMZN.WEBRip.DD5.1.x264-QOQ 3.4GB
回复

使用道具 举报

您需要登录后才可以回帖 登录 | 立即注册

本版积分规则

快速回复 返回顶部 返回列表