找回密码
 立即注册
搜索

本文来自

影视资源

影视资源

订阅|关注 (29)

本站提供720p|1080p|4K 等超高清分辨率电影电视剧免费下载。

精选帖子

15万

主题

15万

帖子

47万

积分

网站编辑

Rank: 8Rank: 8

积分
475093

[超清电影] 我如何赢得战争 How.I.Won.the.War.1967.1080p.BluRay.x264.DTS-FGT 10GB

[复制链接]
1750 99mp4 发表于 2018-8-10 20:02:16


◎译  名 我如何赢得战争
◎片  名 How I Won the War
◎年  代 1967
◎产  地 英国
◎类  别 喜剧/战争
◎语  言 英语
◎上映日期 1967-10-18
◎IMDb评分  5.8/10 from 2,003 users
◎IMDb链接  http://www.imdb.com/title/tt0061789/
◎久久MP4整理 http://www.99mp4.net
◎片  长 USA: 109 分钟/Argentina: 109 分钟
◎导  演 理查德·莱斯特 Richard Lester
◎主  演 迈克尔·克劳福德 Michael Crawford
      约翰·列侬 John Lennon
      Roy Kinnear

◎简  介

  二次世界大战时期一中尉受命带领他的部队完成上级的任务,这是一支团结的部队,但是战争是不定的在完成任务的过程中,他们又……

Video
ID : 1
Format : AVC
Format/Info : Advanced Video Codec
Format profile : [email protected]
Format settings : CABAC / 4 Ref Frames
Format settings, CABAC : Yes
Format settings, ReFrames : 4 frames
Codec ID : V_MPEG4/ISO/AVC
Duration : 1 h 50 min
Bit rate : 11.5 Mb/s
Width : 1 804 pixels
Height : 1 080 pixels
Display aspect ratio : 5:3
Frame rate mode : Constant
Frame rate : 23.976 (24000/1001) FPS
Color space : YUV
Chroma subsampling : 4:2:0
Bit depth : 8 bits
Scan type : Progressive
Bits/(Pixel*Frame) : 0.246
Stream size : 8.88 GiB (88%)
Title : How.I.Won.the.War.1967.1080p.BluRay.x264.DTS-FGT
Writing library : x264 core 148 r2795M aaa9aa8
Encoding settings : cabac=1 / ref=4 / deblock=1:-2:-2 / analyse=0x3:0x113 / me=umh / subme=9 / psy=1 / psy_rd=1.00:0.15 / mixed_ref=1 / me_range=16 / chroma_me=1 / trellis=2 / 8x8dct=1 / cqm=0 / deadzone=21,11 / fast_pskip=1 / chroma_qp_offset=-3 / threads=24 / lookahead_threads=3 / sliced_threads=0 / nr=0 / decimate=1 / interlaced=0 / bluray_compat=0 / constrained_intra=0 / bframes=3 / b_pyramid=2 / b_adapt=1 / b_bias=0 / direct=3 / weightb=1 / open_gop=0 / weightp=2 / keyint=250 / keyint_min=25 / scenecut=40 / intra_refresh=0 / rc_lookahead=50 / rc=2pass / mbtree=1 / bitrate=11500 / ratetol=1.0 / qcomp=0.60 / qpmin=0 / qpmax=69 / qpstep=4 / cplxblur=20.0 / qblur=0.5 / vbv_maxrate=31250 / vbv_bufsize=31250 / nal_hrd=none / filler=0 / ip_ratio=1.40 / aq=1:1.00
Language : English
Default : Yes
Forced : No
Audio
ID : 2
Format : DTS
Format/Info : Digital Theater Systems
Codec ID : A_DTS
Duration : 1 h 50 min
Bit rate mode : Constant
Bit rate : 1 509 kb/s
Channel(s) : 2 channels
Channel positions : Front: L R
Sampling rate : 48.0 kHz
Frame rate : 93.750 FPS (512 SPF)
Bit depth : 24 bits
Compression mode : Lossy
Stream size : 1.17 GiB (12%)
Title : How.I.Won.the.War.1967.1080p.BluRay.x264.DTS-FGT
Language : English
Default : No
Forced : No
Text
ID : 3
Format : UTF-8
Codec ID : S_TEXT/UTF8
Codec ID/Info : UTF-8 Plain Text
Duration : 1 h 48 min
Bit rate : 67 b/s
Count of elements : 1175
Stream size : 53.7 KiB (0%)
Language : English
Default : Yes
Forced : No
Menu
00:00:00.000 : en:Chapter 01
00:08:29.675 : en:Chapter 02
00:20:18.926 : en:Chapter 03
00:30:48.263 : en:Chapter 04
00:42:29.588 : en:Chapter 05
00:50:47.169 : en:Chapter 06
00:59:23.518 : en:Chapter 07
01:08:47.289 : en:Chapter 08
01:20:17.312 : en:Chapter 09
01:29:28.488 : en:Chapter 10
01:39:50.985 : en:Chapter 11
01:48:56.738 : en:Chapter 12









下载地址:
我如何赢得战争 How.I.Won.the.War.1967.1080p.BluRay.x264.DTS-FGT 10GB
回复

使用道具 举报

您需要登录后才可以回帖 登录 | 立即注册

本版积分规则

快速回复 返回顶部 返回列表