找回密码
 立即注册
搜索

本文来自

影视资源

影视资源

订阅|关注 (30)

本站提供720p|1080p|4K 等超高清分辨率电影电视剧免费下载。

精选帖子

15万

主题

15万

帖子

47万

积分

网站编辑

Rank: 8Rank: 8

积分
475929

[超清电影] 根西岛文学与土豆皮馅饼俱乐部 2018.1080p.NF.WEBRip.DDP5.1.x264-QOQ 4.7GB

[复制链接]
990 99mp4 发表于 2018-8-10 21:02:43

自带中字


◎译  名 根西岛文学与土豆皮馅饼俱乐部/真爱收信中(台)/纳粹铁蹄下的密函情书(港)/根基岛的文学和土豆派协会
◎片  名 The Guernsey Literary and Potato Peel Pie Society
◎年  代 2018
◎产  地 英国/美国
◎类  别 剧情/爱情
◎语  言 英语
◎上映日期 2018-04-20(英国)
◎IMDb评分  7.1/10 from 2,525 users
◎IMDb链接  http://www.imdb.com/title/tt1289403/
◎豆瓣评分 7.3/10 from 175 users
◎豆瓣链接 https://movie.douban.com/subject/3212397/
◎久久MP4整理 http://www.99mp4.net
◎片  长 124分钟
◎导  演 迈克·内威尔 Mike Newell
◎主  演 莉莉·詹姆斯 Lily James
      米契尔·哈思曼 Michiel Huisman
      格伦·鲍威尔 Glen Powell
      马修·古迪 Matthew Goode
      杰西卡·布朗·芬德利 Jessica Brown Findlay
      汤姆·康特奈 Tom Courtenay
      佩内洛普·威尔顿 Penelope Wilton

◎简  介

  本片根据安妮·巴罗斯、玛丽·安·谢弗同名小说改编。故事构建于二战后,讲述作家朱丽叶·艾什顿(莉莉·詹姆斯饰)与“根西岛文学与土豆皮馅饼俱乐部”之间互相了解并熟知的故事。

Video
ID : 1
Format : AVC
Format/Info : Advanced Video Codec
Format profile : [email protected]
Format settings : CABAC / 3 Ref Frames
Format settings, CABAC : Yes
Format settings, ReFrames : 3 frames
Codec ID : V_MPEG4/ISO/AVC
Duration : 2 h 3 min
Bit rate mode : Variable
Bit rate : 4 870 kb/s
Maximum bit rate : 7 305 kb/s
Width : 1 920 pixels
Height : 1 080 pixels
Display aspect ratio : 16:9
Frame rate mode : Constant
Frame rate : 24.000 FPS
Color space : YUV
Chroma subsampling : 4:2:0
Bit depth : 8 bits
Scan type : Progressive
Bits/(Pixel*Frame) : 0.098
Stream size : 4.15 GiB (88%)
Writing library : x264 core 148 r2715 7e75228
Encoding settings : cabac=1 / ref=3 / deblock=1:0:0 / analyse=0x1:0x111 / me=umh / subme=10 / psy=1 / psy_rd=1.00:0.00 / mixed_ref=1 / me_range=24 / chroma_me=1 / trellis=2 / 8x8dct=0 / cqm=0 / deadzone=21,11 / fast_pskip=1 / chroma_qp_offset=-2 / threads=8 / lookahead_threads=1 / sliced_threads=0 / nr=0 / decimate=1 / interlaced=0 / bluray_compat=0 / stitchable=1 / constrained_intra=0 / bframes=2 / b_pyramid=0 / b_adapt=2 / b_bias=0 / direct=3 / weightb=1 / open_gop=0 / weightp=2 / keyint=48 / keyint_min=25 / scenecut=0 / intra_refresh=0 / rc_lookahead=48 / rc=2pass / mbtree=1 / bitrate=4870 / ratetol=1.0 / qcomp=0.50 / qpmin=6 / qpmax=51 / qpstep=4 / cplxblur=20.0 / qblur=0.5 / vbv_maxrate=7305 / vbv_bufsize=9740 / nal_hrd=vbr / filler=0 / ip_ratio=1.40 / aq=1:1.00
Default : Yes
Forced : No
Audio
ID : 2
Format : E-AC-3
Format/Info : Enhanced Audio Coding 3
Codec ID : A_EAC3
Duration : 2 h 3 min
Bit rate mode : Constant
Bit rate : 640 kb/s
Channel(s) : 6 channels
Channel positions : Front: L C R, Side: L R, LFE
Sampling rate : 48.0 kHz
Frame rate : 187.500 FPS (256 SPF)
Compression mode : Lossy
Stream size : 568 MiB (12%)
Title : English
Language : English
Service kind : Complete Main
Default : Yes
Forced : No
Text #1
ID : 3
Format : UTF-8
Codec ID : S_TEXT/UTF8
Codec ID/Info : UTF-8 Plain Text
Duration : 1 h 59 min
Bit rate : 63 b/s
Count of elements : 1708
Stream size : 55.4 KiB (0%)
Title : SDH
Language : English
Default : Yes
Forced : No
Text #2
ID : 4
Format : UTF-8
Codec ID : S_TEXT/UTF8
Codec ID/Info : UTF-8 Plain Text
Duration : 1 h 59 min
Bit rate : 58 b/s
Count of elements : 1484
Stream size : 51.5 KiB (0%)
Language : Spanish
Default : No
Forced : No
Text #3
ID : 5
Format : UTF-8
Codec ID : S_TEXT/UTF8
Codec ID/Info : UTF-8 Plain Text
Duration : 1 h 59 min
Bit rate : 53 b/s
Count of elements : 1500
Stream size : 46.7 KiB (0%)
Language : Italian
Default : No
Forced : No
Text #4
ID : 6
Format : UTF-8
Codec ID : S_TEXT/UTF8
Codec ID/Info : UTF-8 Plain Text
Duration : 1 h 59 min
Bit rate : 61 b/s
Count of elements : 1580
Stream size : 54.3 KiB (0%)
Language : Korean
Default : No
Forced : No
Text #5
ID : 7
Format : UTF-8
Codec ID : S_TEXT/UTF8
Codec ID/Info : UTF-8 Plain Text
Duration : 1 h 59 min
Bit rate : 53 b/s
Count of elements : 1545
Stream size : 46.5 KiB (0%)
Language : Polish
Default : No
Forced : No
Text #6
ID : 8
Format : UTF-8
Codec ID : S_TEXT/UTF8
Codec ID/Info : UTF-8 Plain Text
Duration : 1 h 59 min
Bit rate : 51 b/s
Count of elements : 1508
Stream size : 45.1 KiB (0%)
Title : Brazilian
Language : Portuguese
Default : No
Forced : No
Text #7
ID : 9
Format : UTF-8
Codec ID : S_TEXT/UTF8
Codec ID/Info : UTF-8 Plain Text
Duration : 1 h 59 min
Bit rate : 60 b/s
Count of elements : 1547
Stream size : 53.0 KiB (0%)
Language : Romanian
Default : No
Forced : No
Text #8
ID : 10
Format : UTF-8
Codec ID : S_TEXT/UTF8
Codec ID/Info : UTF-8 Plain Text
Duration : 1 h 59 min
Bit rate : 153 b/s
Count of elements : 1572
Stream size : 135 KiB (0%)
Language : Thai
Default : No
Forced : No
Text #9
ID : 11
Format : UTF-8
Codec ID : S_TEXT/UTF8
Codec ID/Info : UTF-8 Plain Text
Duration : 1 h 59 min
Bit rate : 56 b/s
Count of elements : 1556
Stream size : 49.3 KiB (0%)
Language : Turkish
Default : No
Forced : No
Text #10
ID : 12
Format : UTF-8
Codec ID : S_TEXT/UTF8
Codec ID/Info : UTF-8 Plain Text
Duration : 1 h 59 min
Bit rate : 54 b/s
Count of elements : 1573
Stream size : 47.6 KiB (0%)
Title : Traditional
Language : Chinese
Default : No
Forced : No





下载地址:
根西岛文学与土豆皮馅饼俱乐部 2018.1080p.NF.WEBRip.DDP5.1.x264-QOQ 4.7GB
回复

使用道具 举报

您需要登录后才可以回帖 登录 | 立即注册

本版积分规则

快速回复 返回顶部 返回列表