找回密码
 立即注册
搜索

本文来自

影视资源

影视资源

订阅|关注 (31)

本站提供720p|1080p|4K 等超高清分辨率电影电视剧免费下载。

精选帖子

15万

主题

16万

帖子

48万

积分

网站编辑

Rank: 8Rank: 8

积分
481688

[超清电影] Collider.2018.720p.AMZN.WEBRip.DDP5.1.x264-NTG 2.4GB

[复制链接]
2770 99mp4 发表于 2018-8-10 21:03:46


◎译  名 
◎片  名 Collider
◎年  代 2016
◎产  地 美国
◎类  别 动作/科幻
◎语  言 英语
◎IMDb评分  N/A
◎IMDb链接  https://www.imdb.com/title/tt4538294/
◎久久MP4整理 http://www.99mp4.net
◎导  演 Justin Lewis
◎主  演 Christine Mascolo ... Maya
      Jude Moran ... Barry
      Michael Vasicek ... John

◎简  介

  In the year 2033| a young girl trapped in a mysterious orphanage recklessly travels back in time to find her parents and amend her past.

Video
ID : 1
Format : AVC
Format/Info : Advanced Video Codec
Format profile : [email protected]
Format settings : CABAC / 5 Ref Frames
Format settings, CABAC : Yes
Format settings, ReFrames : 5 frames
Codec ID : V_MPEG4/ISO/AVC
Duration : 1 h 24 min
Bit rate : 3 426 kb/s
Width : 1 280 pixels
Height : 528 pixels
Display aspect ratio : 2.40:1
Original display aspect ratio : 2.40:1
Frame rate mode : Constant
Frame rate : 23.976 (24000/1001) FPS
Color space : YUV
Chroma subsampling : 4:2:0
Bit depth : 8 bits
Scan type : Progressive
Bits/(Pixel*Frame) : 0.211
Stream size : 2.02 GiB (84%)
Default : Yes
Forced : No
Color range : Limited
Color primaries : BT.709
Transfer characteristics : BT.709
Matrix coefficients : BT.709
Audio
ID : 2
Format : E-AC-3
Format/Info : Enhanced Audio Coding 3
Codec ID : A_EAC3
Duration : 1 h 24 min
Bit rate mode : Constant
Bit rate : 640 kb/s
Channel(s) : 6 channels
Channel positions : Front: L C R, Side: L R, LFE
Sampling rate : 48.0 kHz
Frame rate : 187.500 FPS (256 SPF)
Compression mode : Lossy
Stream size : 386 MiB (16%)
Language : English
Service kind : Complete Main
Default : Yes
Forced : No
Text
ID : 3
Format : UTF-8
Codec ID : S_TEXT/UTF8
Codec ID/Info : UTF-8 Plain Text
Duration : 1 h 20 min
Bit rate : 44 b/s
Count of elements : 911
Stream size : 26.3 KiB (0%)
Title : SDH
Language : English
Default : No
Forced : No






下载地址:
Collider.2018.720p.AMZN.WEBRip.DDP5.1.x264-NTG 2.4GB
回复

使用道具 举报

您需要登录后才可以回帖 登录 | 立即注册

本版积分规则

快速回复 返回顶部 返回列表