找回密码
 立即注册
搜索

本文来自

影视资源

影视资源

订阅|关注 (31)

本站提供720p|1080p|4K 等超高清分辨率电影电视剧免费下载。

精选帖子

15万

主题

16万

帖子

48万

积分

网站编辑

Rank: 8Rank: 8

积分
481688

[超清电影] Runner.2018.720p.WEB-DL.AAC2.0.H264-FGT 2.83GB

[复制链接]
1820 99mp4 发表于 2018-9-14 21:15:33


◎译  名 
◎片  名 runner
◎年  代 2018
◎产  地 美国
◎类  别 剧情
◎语  言 英语
◎上映日期 2018-08-21(美国)
◎久久MP4整理 http://www.99mp4.net
◎片  长 94分钟
◎导  演 Brian George Randles
◎主  演 Robert Hardin
      Lauren Waites
      Edward Hendershott

◎简  介

  Emptied out in Los Angeles| a heartsick gambler from Kentucky decides to confront demons past after a run-in with a mercurial Hollywood drug dealer.


Video
ID : 1
Format : AVC
Format/Info : Advanced Video Codec
Format profile : [email protected]
Format settings : 2 Ref Frames
Format settings, CABAC : No
Format settings, ReFrames : 2 frames
Codec ID : V_MPEG4/ISO/AVC
Duration : 1 h 33 min
Bit rate : 4 075 kb/s
Width : 1 280 pixels
Height : 720 pixels
Display aspect ratio : 16:9
Frame rate mode : Constant
Frame rate : 23.976 FPS
Color space : YUV
Chroma subsampling : 4:2:0
Bit depth : 8 bits
Scan type : Progressive
Bits/(Pixel*Frame) : 0.184
Stream size : 2.66 GiB (94%)
Title : Runner.2018.720p.WEB-DL.AAC2.0.H264-FGT
Language : English
Default : Yes
Forced : No
Color range : Limited
Color primaries : BT.709
Transfer characteristics : BT.709
Matrix coefficients : BT.709
Audio
ID : 2
Format : AAC
Format/Info : Advanced Audio Codec
Format profile : LC
Codec ID : A_AAC-2
Duration : 1 h 33 min
Bit rate : 256 kb/s
Channel(s) : 2 channels
Channel positions : Front: L R
Sampling rate : 48.0 kHz
Frame rate : 46.875 FPS (1024 SPF)
Compression mode : Lossy
Stream size : 171 MiB (6%)
Title : Runner.2018.720p.WEB-DL.AAC2.0.H264-FGT
Language : English
Default : Yes
Forced : No
Menu
00:00:00.000 : :1
00:06:31.000 : :2
00:12:34.000 : :3
00:18:02.000 : :4
00:24:14.000 : :5
00:30:09.000 : :6
00:36:37.000 : :7
00:42:54.000 : :8
00:48:26.000 : :9
00:53:39.000 : :10
00:59:11.000 : :11
01:08:02.000 : :12
01:13:28.000 : :13
01:18:30.000 : :14
01:24:34.000 : :15
01:31:29.000 : :16






下载地址:
Runner.2018.720p.WEB-DL.AAC2.0.H264-FGT 2.83GB
回复

使用道具 举报

您需要登录后才可以回帖 登录 | 立即注册

本版积分规则

快速回复 返回顶部 返回列表