找回密码
 立即注册
搜索

本文来自

影视资源

影视资源

订阅|关注 (31)

本站提供720p|1080p|4K 等超高清分辨率电影电视剧免费下载。

精选帖子

15万

主题

16万

帖子

48万

积分

网站编辑

Rank: 8Rank: 8

积分
481688

[超清电影] 雪耻女孩[内封中字]Revenge.Girl.2017.720p.BluRay.x264-WiKi 4.24GB

[复制链接]
2970 99mp4 发表于 2018-9-14 21:15:45


◎译  名 雪耻女孩/复仇女孩/雪耻少女
◎片  名 リベンジgirl
◎年  代 2017
◎产  地 日本
◎类  别 喜剧/动作/爱情
◎语  言 日语
◎上映日期 2017-12-23(日本)
◎久久MP4整理 http://www.99mp4.net
◎片  长 111分钟
◎导  演 三木康一郎 K?ichir? Miki
◎主  演 桐谷美玲 Mirei Kiritani
      铃木伸之 Nobuyuki Suzuki
      清原翔 Sh? Kiyohara
      马场富美加 Fumika Baba
      佐津川爱美 Aimi Satsukawa
      大和田伸也 Shin'ya ?wada
      竹内愛紗

◎简  介

  桐谷美玲时隔两年主演电影[雪耻女孩]。影片讲诉才色兼备的Miss东大,以失恋为契机,而立志成为第一位女性内阁总理大臣。本片由三木康一郎([植物图鉴])执导,12月23日日本上映。
宝石美辉(桐谷美玲 饰)是东大最受欢迎的校花第一名。但遗憾的是,她的性格极差且不自知。在她经历了一次惨痛的失恋之后,她发誓要进行一次赌上人生的“复仇”。那就是成为日本首位女首相。由此,美辉开始了她的恋爱复仇计划。

Video
ID : 1
Format : AVC
Format/Info : Advanced Video Codec
Format profile : [email protected]
Format settings : CABAC / 9 Ref Frames
Format settings, CABAC : Yes
Format settings, ReFrames : 9 frames
Codec ID : V_MPEG4/ISO/AVC
Duration : 1 h 50 min
Bit rate : 4 819 kb/s
Width : 1 280 pixels
Height : 692 pixels
Display aspect ratio : 1.85:1
Frame rate mode : Constant
Frame rate : 23.976 (24000/1001) FPS
Color space : YUV
Chroma subsampling : 4:2:0
Bit depth : 8 bits
Scan type : Progressive
Bits/(Pixel*Frame) : 0.227
Stream size : 3.74 GiB (88%)
Title : x264_L4.1 @ 4,819 Kbps
Writing library : x264 core 129 r2245+704+36 8e61944 tMod+MixAQ [[email protected]:2:0 X86_64]
Encoding settings : cabac=1 / ref=9 / deblock=1:-3:-3 / analyse=0x3:0x133 / me=umh / subme=11 / psy=1 / fade_compensate=0.00 / psy_rd=1.05:0.10 / mixed_ref=1 / me_range=32 / chroma_me=1 / trellis=2 / 8x8dct=1 / cqm=0 / deadzone=21,11 / fast_pskip=0 / chroma_qp_offset=-3 / threads=12 / lookahead_threads=2 / sliced_threads=0 / nr=0 / decimate=1 / interlaced=0 / bluray_compat=0 / constrained_intra=0 / fgo=0 / bframes=10 / b_pyramid=2 / b_adapt=2 / b_bias=0 / direct=3 / weightb=1 / open_gop=0 / weightp=2 / keyint=250 / keyint_min=23 / scenecut=40 / intra_refresh=0 / rc=crf / mbtree=0 / crf=16.0000 / qcomp=0.70 / qpmin=0 / qpmax=69 / qpstep=4 / ip_ratio=1.25 / pb_ratio=1.15 / aq=1 / aq-strength=0.80 / aq-sensitivity=10.00 / aq-ifactor=1.00 / aq-pfactor=1.00 / aq-bfactor=1.00 / aq2=0
Language : Japanese
Default : Yes
Forced : No
Audio
ID : 2
Format : AC-3
Format/Info : Audio Coding 3
Codec ID : A_AC3
Duration : 1 h 50 min
Bit rate mode : Constant
Bit rate : 640 kb/s
Channel(s) : 6 channels
Channel positions : Front: L C R, Side: L R, LFE
Sampling rate : 48.0 kHz
Frame rate : 31.250 FPS (1536 SPF)
Bit depth : 16 bits
Compression mode : Lossy
Stream size : 508 MiB (12%)
Title : Japanese DD 5.1 @ 640 Kbps
Language : Japanese
Service kind : Complete Main
Default : Yes
Forced : No
Text
ID : 3
Format : ASS
Codec ID : S_TEXT/ASS
Codec ID/Info : Advanced Sub Station Alpha
Duration : 1 h 47 min
Bit rate : 86 b/s
Count of elements : 1295
Compression mode : Lossless
Stream size : 68.4 KiB (0%)
Title : Traditional Chinese (SUBPIG)
Language : Chinese
Default : Yes
Forced : No
Menu
00:00:00.000 : :00:00:00.000
00:21:57.525 : :00:21:57.525
00:36:29.229 : :00:36:29.229
00:50:19.850 : :00:50:19.850
01:09:22.700 : :01:09:22.700
01:30:15.201 : :01:30:15.201





下载地址:
雪耻女孩内封中字.Revenge.Girl.2017.720p.BluRay.x264-WiKi 4.24GB
回复

使用道具 举报

您需要登录后才可以回帖 登录 | 立即注册

本版积分规则

快速回复 返回顶部 返回列表