找回密码
 立即注册
搜索

本文来自

影视资源

影视资源

订阅|关注 (28)

本站提供720p|1080p|4K 等超高清分辨率电影电视剧免费下载。

精选帖子

15万

主题

15万

帖子

46万

积分

网站编辑

Rank: 8Rank: 8

积分
468668

[超清电影] 黑色尾流 Black.Wake.2018.720p.WEB-DL.DD5.1.H264-FGT 2.8GB

[复制链接]
1640 99mp4 发表于 7 天前


◎译  名 黑色尾流
◎片  名 Black Wake
◎年  代 2018
◎产  地 美国
◎类  别 科幻/惊悚/恐怖
◎语  言 英语
◎久久MP4整理 http://www.99mp4.net
◎片  长 91分钟
◎导  演 Jeremiah Kipp
◎主  演 Nana Gouvea
      汤姆·塞兹摩尔 Tom Sizemore
      埃里克·罗伯茨 Eric Roberts
      乔尼·波查普 Jonny Beauchamp
      维森特·帕斯托雷 Vincent Pastore
      查克·齐托 Chuck Zito

◎简  介

  Specialists gather in a top-secret facility to investigate a series of strange deaths on beaches along the Atlantic Ocean. One of the team's scientists (Nana Gouvea) examines video evidence to uncover a possible parasitic explanation for the fatalities. But when a determined detective (Tom Sizemore) sends her the crazed writings of a mysterious homeless man (Jonny Beauchamp), the scientist slowly learns that the actual threat may be more dangerous -- and far older -- than anyone ever imagined. Can she convince her colleagues (led by Eric Roberts) of the true danger before an ancient force rises from the sea to bring madness and death to all of humanity?

Video
ID : 1
Format : AVC
Format/Info : Advanced Video Codec
Format profile : [email protected]
Format settings : 2 Ref Frames
Format settings, CABAC : No
Format settings, ReFrames : 2 frames
Codec ID : V_MPEG4/ISO/AVC
Duration : 1 h 31 min
Bit rate : 4 006 kb/s
Width : 1 278 pixels
Height : 720 pixels
Display aspect ratio : 16:9
Frame rate mode : Constant
Frame rate : 23.976 FPS
Color space : YUV
Chroma subsampling : 4:2:0
Bit depth : 8 bits
Scan type : Progressive
Bits/(Pixel*Frame) : 0.182
Stream size : 2.55 GiB (91%)
Title : Black.Wake.2018.720p.WEB-DL.DD5.1.H264-FGT
Language : English
Default : Yes
Forced : No
Color range : Limited
Color primaries : BT.709
Transfer characteristics : BT.709
Matrix coefficients : BT.709
Audio
ID : 2
Format : AC-3
Format/Info : Audio Coding 3
Codec ID : A_AC3
Duration : 1 h 31 min
Bit rate mode : Constant
Bit rate : 384 kb/s
Channel(s) : 6 channels
Channel positions : Front: L C R, Side: L R, LFE
Sampling rate : 48.0 kHz
Frame rate : 31.250 FPS (1536 SPF)
Bit depth : 16 bits
Compression mode : Lossy
Stream size : 251 MiB (9%)
Title : Black.Wake.2018.720p.WEB-DL.DD5.1.H264-FGT
Language : English
Service kind : Complete Main
Default : Yes
Forced : No
Menu
00:00:00.000 : en:01
00:07:02.000 : en:2
00:14:52.000 : en:3
00:20:18.000 : en:4
00:28:28.000 : en:5
00:35:27.000 : en:6
00:44:09.000 : en:7
00:51:16.000 : en:8
00:58:14.000 : en:9
01:04:23.000 : en:10
01:11:15.000 : en:11
01:19:12.000 : en:12





下载地址:
黑色尾流 Black.Wake.2018.720p.WEB-DL.DD5.1.H264-FGT 2.8GB
回复

使用道具 举报

您需要登录后才可以回帖 登录 | 立即注册

本版积分规则

快速回复 返回顶部 返回列表