找回密码
 立即注册
搜索

本文来自

影视资源

影视资源

订阅|关注 (31)

本站提供720p|1080p|4K 等超高清分辨率电影电视剧免费下载。

精选帖子

15万

主题

16万

帖子

48万

积分

网站编辑

Rank: 8Rank: 8

积分
481688

[超清电影] 盖娜/神鬼帝国 Kaena.The.Prophecy.2003.1080p.AMZN.WEBRip.DDP5.1.x264-ABM 5.59GB

[复制链接]
2790 99mp4 发表于 2018-9-14 21:16:07


◎译  名 盖娜/神鬼帝国/新太空战士
◎片  名 Kaena: La prophétie
◎年  代 2003
◎产  地 法国/加拿大
◎类  别 动作/冒险/动画/家庭/奇幻/科幻
◎语  言 英语/法语
◎上映日期 2003-06-04
◎久久MP4整理 http://www.99mp4.net
◎片  长 85 分钟
◎导  演 Chris Delaporte / Pascal Pinon
◎主  演 塞西尔·德·弗朗斯 Cécile De France
      迈克尔·朗斯代尔 Michael Lonsdale
      维多利亚·阿夫里尔 Victoria Abril

◎简  介

  故事叙述在遥远的时空,太空船“威卡诺伊号”在航行途中遭遇变故而坠毁在“艾斯多利亚双子星”上,威卡诺伊号太空船的电脑中枢与艾斯多利亚星的神秘能量结合,成为全新生命体“AXIS”并进一步使整个艾斯多利亚星产生异变,让该星球的植物异常生长而导致生态体系异变,而植物的“树液”成为维持所有生命能量的重要来源。

  600年中,艾斯多利亚星异型生物把新人种[人类]视为奴隶,为其采集能源,并以上帝的身份施加暴行。盖娜是一个爱冒险的小姑娘,她屡屡发现古代遗留下来的线索,欲揭开真相。在威卡诺伊号唯一幸存者的帮助下,盖娜找到的残存的电脑中枢AXIS,并击败了异型统治者,释放了AXIS的能量,开启了一道通往新世界的桥梁。族人终于从奴役中被解救!


Video
ID : 1
Format : AVC
Format/Info : Advanced Video Codec
Format profile : [email protected]
Format settings : CABAC / 4 Ref Frames
Format settings, CABAC : Yes
Format settings, ReFrames : 4 frames
Codec ID : V_MPEG4/ISO/AVC
Duration : 1 h 31 min
Bit rate mode : Variable
Bit rate : 8 122 kb/s
Maximum bit rate : 15.0 Mb/s
Width : 1 920 pixels
Height : 1 040 pixels
Display aspect ratio : 1.85:1
Frame rate mode : Constant
Frame rate : 23.976 (24000/1001) FPS
Color space : YUV
Chroma subsampling : 4:2:0
Bit depth : 8 bits
Scan type : Progressive
Bits/(Pixel*Frame) : 0.170
Stream size : 5.18 GiB (93%)
Writing library : x264 core 148 r2623 d5b2374
Encoding settings : cabac=1 / ref=4 / deblock=1:-1:-1 / analyse=0x3:0x133 / me=umh / subme=9 / psy=1 / psy_rd=1.00:0.15 / mixed_ref=1 / me_range=24 / chroma_me=1 / trellis=2 / 8x8dct=1 / cqm=0 / deadzone=21,11 / fast_pskip=1 / chroma_qp_offset=-3 / threads=32 / lookahead_threads=5 / sliced_threads=0 / nr=150 / decimate=1 / interlaced=0 / bluray_compat=0 / constrained_intra=0 / bframes=8 / b_pyramid=2 / b_adapt=2 / b_bias=0 / direct=3 / weightb=1 / open_gop=0 / weightp=2 / keyint=120 / keyint_min=61 / scenecut=0 / intra_refresh=0 / rc_lookahead=120 / rc=crf / mbtree=1 / crf=18.0 / qcomp=0.60 / qpmin=0 / qpmax=69 / qpstep=4 / vbv_maxrate=15000 / vbv_bufsize=31250 / crf_max=0.0 / nal_hrd=vbr / filler=0 / ip_ratio=1.40 / aq=3:1.00
Default : Yes
Forced : No
Color range : Limited
Color primaries : BT.709
Transfer characteristics : BT.709
Matrix coefficients : BT.709
Audio
ID : 2
Format : E-AC-3
Format/Info : Enhanced Audio Coding 3
Codec ID : A_EAC3
Duration : 1 h 31 min
Bit rate mode : Constant
Bit rate : 640 kb/s
Channel(s) : 6 channels
Channel positions : Front: L C R, Side: L R, LFE
Sampling rate : 48.0 kHz
Frame rate : 187.500 FPS (256 SPF)
Compression mode : Lossy
Stream size : 418 MiB (7%)
Language : English
Service kind : Complete Main
Default : Yes
Forced : No
Text #1
ID : 3
Format : UTF-8
Codec ID : S_TEXT/UTF8
Codec ID/Info : UTF-8 Plain Text
Duration : 1 h 23 min
Bit rate : 43 b/s
Count of elements : 1110
Stream size : 26.5 KiB (0%)
Language : English
Default : No
Forced : No
Text #2
ID : 4
Format : UTF-8
Codec ID : S_TEXT/UTF8
Codec ID/Info : UTF-8 Plain Text
Duration : 1 h 28 min
Bit rate : 43 b/s
Count of elements : 1246
Stream size : 28.2 KiB (0%)
Title : SDH
Language : English
Default : No
Forced : No






下载地址:
盖娜/神鬼帝国 Kaena.The.Prophecy.2003.1080p.AMZN.WEBRip.DDP5.1.x264-ABM 5.59GB
回复

使用道具 举报

您需要登录后才可以回帖 登录 | 立即注册

本版积分规则

快速回复 返回顶部 返回列表