找回密码
 立即注册
搜索

本文来自

影视资源

影视资源

订阅|关注 (31)

本站提供720p|1080p|4K 等超高清分辨率电影电视剧免费下载。

精选帖子

15万

主题

16万

帖子

48万

积分

网站编辑

Rank: 8Rank: 8

积分
481688

[超清电影] 珍/珍·古道尔 Jane.2017.1080p.NF.WEBRip.DDP5.1.x264-monkee 4.98GB

[复制链接]
2730 99mp4 发表于 2018-9-14 21:16:18


◎译  名 珍/珍·古道尔
◎片  名 Jane
◎年  代 2017
◎产  地 美国
◎类  别 传记/纪录片
◎语  言 英语
◎上映日期 2017-09-10(多伦多国际电影节)
◎久久MP4整理 http://www.99mp4.net
◎片  长 90分钟
◎导  演 布莱特·摩根 Brett Morgen
◎主  演 珍·古道尔 Jane Goodall

◎简  介

  影片主角是在世界上拥有极高声誉的动物学家珍·古道尔,她二十多岁时前往非洲的原始森林,为了观察黑猩猩,在那里度过了三十八年的野外生涯,后来常年奔走于世界各地,呼吁人们保护野生动物、保护地球环境。 导演布莱特·摩根尤其擅长人物刻画,他从100多个小时从未公布过的珍·古道尔在野外考察和访谈的影像资料中选材剪辑,以第一人称视角,讲述了珍·古道尔年轻时在非洲研究黑猩猩的故事。伴随菲利普·格拉斯的迷人配乐,让观众感受到在那个仍由男性主导野外科研的年代,一个女人如何通过激情、奉献和毅力改变世界。影片还把人类的命运与动物交织在一起,大大强化了人与自然的关系。

◎获奖情况

  第71届英国电影学院奖  (2018)
  电影奖 最佳纪录片(提名)

  第70届美国编剧工会奖  (2018)
  电影奖 最佳纪录片剧本 布莱特·摩根

  第29届美国制片人工会奖  (2018)
  最佳纪录片制片人奖

  第68届美国剪辑工会奖  (2018)
  纪录片最佳剪辑 Joe Beshenkovsky / 布莱特·摩根

  第54届美国声音效果协会奖  (2018)
  纪录片最佳音效

  第89届美国国家评论协会奖  (2017)
  最佳纪录片 布莱特·摩根

  第16届华盛顿影评人协会奖  (2017)
  最佳纪录片


Video
ID : 1
Format : AVC
Format/Info : Advanced Video Codec
Format profile : [email protected]
Format settings : CABAC / 3 Ref Frames
Format settings, CABAC : Yes
Format settings, ReFrames : 3 frames
Codec ID : V_MPEG4/ISO/AVC
Duration : 1 h 30 min
Bit rate mode : Variable
Bit rate : 7 500 kb/s
Maximum bit rate : 11.2 Mb/s
Width : 1 920 pixels
Height : 1 080 pixels
Display aspect ratio : 16:9
Frame rate mode : Constant
Frame rate : 23.976 (24000/1001) FPS
Color space : YUV
Chroma subsampling : 4:2:0
Bit depth : 8 bits
Scan type : Progressive
Bits/(Pixel*Frame) : 0.151
Stream size : 4.57 GiB (92%)
Writing library : x264 core 148 r2715 7e75228
Encoding settings : cabac=1 / ref=3 / deblock=1:0:0 / analyse=0x1:0x111 / me=umh / subme=10 / psy=1 / psy_rd=1.00:0.00 / mixed_ref=1 / me_range=24 / chroma_me=1 / trellis=2 / 8x8dct=0 / cqm=0 / deadzone=21,11 / fast_pskip=1 / chroma_qp_offset=-2 / threads=8 / lookahead_threads=1 / sliced_threads=0 / nr=0 / decimate=1 / interlaced=0 / bluray_compat=0 / stitchable=1 / constrained_intra=0 / bframes=2 / b_pyramid=0 / b_adapt=2 / b_bias=0 / direct=3 / weightb=1 / open_gop=0 / weightp=2 / keyint=48 / keyint_min=25 / scenecut=0 / intra_refresh=0 / rc_lookahead=48 / rc=2pass / mbtree=1 / bitrate=7500 / ratetol=1.0 / qcomp=0.50 / qpmin=6 / qpmax=51 / qpstep=4 / cplxblur=20.0 / qblur=0.5 / vbv_maxrate=11250 / vbv_bufsize=15000 / nal_hrd=vbr / filler=0 / ip_ratio=1.40 / aq=1:1.00
Default : Yes
Forced : No
Audio
ID : 2
Format : E-AC-3
Format/Info : Enhanced Audio Coding 3
Codec ID : A_EAC3
Duration : 1 h 30 min
Bit rate mode : Constant
Bit rate : 640 kb/s
Channel(s) : 6 channels
Channel positions : Front: L C R, Side: L R, LFE
Sampling rate : 48.0 kHz
Frame rate : 187.500 FPS (256 SPF)
Compression mode : Lossy
Stream size : 413 MiB (8%)
Language : English
Service kind : Complete Main
Default : Yes
Forced : No
Text #1
ID : 3
Format : UTF-8
Codec ID : S_TEXT/UTF8
Codec ID/Info : UTF-8 Plain Text
Duration : 37 min 23 s
Bit rate : 0 b/s
Count of elements : 4
Stream size : 194 Bytes (0%)
Title : Forced
Language : English
Default : Yes
Forced : Yes
Text #2
ID : 4
Format : UTF-8
Codec ID : S_TEXT/UTF8
Codec ID/Info : UTF-8 Plain Text
Duration : 1 h 29 min
Bit rate : 51 b/s
Count of elements : 1034
Stream size : 33.6 KiB (0%)
Title : English
Language : English
Default : No
Forced : No
Text #3
ID : 5
Format : UTF-8
Codec ID : S_TEXT/UTF8
Codec ID/Info : UTF-8 Plain Text
Duration : 1 h 27 min
Bit rate : 46 b/s
Count of elements : 690
Stream size : 30.2 KiB (0%)
Title : Dutch
Language : Dutch
Default : No
Forced : No
Text #4
ID : 6
Format : UTF-8
Codec ID : S_TEXT/UTF8
Codec ID/Info : UTF-8 Plain Text
Duration : 1 h 29 min
Bit rate : 103 b/s
Count of elements : 884
Stream size : 68.2 KiB (0%)
Title : French
Language : French
Default : No
Forced : No
Text #5
ID : 7
Format : UTF-8
Codec ID : S_TEXT/UTF8
Codec ID/Info : UTF-8 Plain Text
Duration : 1 h 29 min
Bit rate : 54 b/s
Count of elements : 859
Stream size : 35.7 KiB (0%)
Title : German
Language : German
Default : No
Forced : No
Text #6
ID : 8
Format : UTF-8
Codec ID : S_TEXT/UTF8
Codec ID/Info : UTF-8 Plain Text
Duration : 1 h 29 min
Bit rate : 95 b/s
Count of elements : 811
Stream size : 62.7 KiB (0%)
Title : Greek
Language : Greek
Default : No
Forced : No
Text #7
ID : 9
Format : UTF-8
Codec ID : S_TEXT/UTF8
Codec ID/Info : UTF-8 Plain Text
Duration : 1 h 29 min
Bit rate : 50 b/s
Count of elements : 860
Stream size : 33.6 KiB (0%)
Title : Italian
Language : Italian
Default : No
Forced : No
Text #8
ID : 10
Format : UTF-8
Codec ID : S_TEXT/UTF8
Codec ID/Info : UTF-8 Plain Text
Duration : 1 h 27 min
Bit rate : 44 b/s
Count of elements : 832
Stream size : 28.9 KiB (0%)
Title : Polish
Language : Polish
Default : No
Forced : No
Text #9
ID : 11
Format : UTF-8
Codec ID : S_TEXT/UTF8
Codec ID/Info : UTF-8 Plain Text
Duration : 1 h 29 min
Bit rate : 109 b/s
Count of elements : 889
Stream size : 72.3 KiB (0%)
Title : Brazilian Portuguese
Language : Portuguese
Default : No
Forced : No
Text #10
ID : 12
Format : UTF-8
Codec ID : S_TEXT/UTF8
Codec ID/Info : UTF-8 Plain Text
Duration : 1 h 29 min
Bit rate : 86 b/s
Count of elements : 783
Stream size : 56.8 KiB (0%)
Title : Portuguese
Language : Portuguese
Default : No
Forced : No
Text #11
ID : 13
Format : UTF-8
Codec ID : S_TEXT/UTF8
Codec ID/Info : UTF-8 Plain Text
Duration : 1 h 29 min
Bit rate : 86 b/s
Count of elements : 863
Stream size : 56.9 KiB (0%)
Title : Russian
Language : Russian
Default : No
Forced : No
Text #12
ID : 14
Format : UTF-8
Codec ID : S_TEXT/UTF8
Codec ID/Info : UTF-8 Plain Text
Duration : 1 h 29 min
Bit rate : 114 b/s
Count of elements : 907
Stream size : 75.2 KiB (0%)
Title : European Spanish
Language : Spanish
Default : No
Forced : No
Text #13
ID : 15
Format : UTF-8
Codec ID : S_TEXT/UTF8
Codec ID/Info : UTF-8 Plain Text
Duration : 1 h 29 min
Bit rate : 115 b/s
Count of elements : 881
Stream size : 76.0 KiB (0%)
Title : Spanish
Language : Spanish
Default : No
Forced : No
Text #14
ID : 16
Format : UTF-8
Codec ID : S_TEXT/UTF8
Codec ID/Info : UTF-8 Plain Text
Duration : 1 h 29 min
Bit rate : 53 b/s
Count of elements : 706
Stream size : 35.0 KiB (0%)
Title : Romanian
Language : Romanian
Default : No
Forced : No
Text #15
ID : 17
Format : UTF-8
Codec ID : S_TEXT/UTF8
Codec ID/Info : UTF-8 Plain Text
Duration : 1 h 29 min
Bit rate : 47 b/s
Count of elements : 835
Stream size : 31.4 KiB (0%)
Title : Turkish
Language : Turkish
Default : No
Forced : No





下载地址:
珍/珍·古道尔 Jane.2017.1080p.NF.WEBRip.DDP5.1.x264-monkee 4.98GB
回复

使用道具 举报

您需要登录后才可以回帖 登录 | 立即注册

本版积分规则

快速回复 返回顶部 返回列表