找回密码
 立即注册
搜索

本文来自

影视资源

影视资源

订阅|关注 (31)

本站提供720p|1080p|4K 等超高清分辨率电影电视剧免费下载。

精选帖子

15万

主题

16万

帖子

48万

积分

网站编辑

Rank: 8Rank: 8

积分
480992

[超清电影] 佐伊 Zoe.2018.1080p.BluRay.REMUX.AVC.DTS-HR.5.1-FGT 27GB

[复制链接]
1080 99mp4 发表于 2018-11-8 21:04:40


◎译  名 佐伊
◎片  名 Zoe
◎年  代 2018
◎产  地 美国
◎类  别 爱情 / 科幻
◎语  言 英语
◎上映日期 2018-04-21(翠贝卡电影节) / 2018-07-20(美国)
◎IMDb评分 6.1/10 from 3078 users
◎IMDb链接 http://www.imdb.com/title/tt6010628
◎豆瓣评分 5.9/10 from 753 users
◎豆瓣链接 https://movie.douban.com/subject/26859006/
◎久久MP4整理 http://www.99mp4.net
◎片  长 104分钟
◎导  演 德雷克·多雷穆斯 Drake Doremus
◎编  剧 理查德·格林伯格 Richard Greenberg
◎主  演 伊万·麦克格雷格 Ewan McGregor
      蕾雅·赛杜 Léa Seydoux
      拉什达·琼斯 Rashida Jones
      提奥·詹姆斯 Theo James
      马修·格雷·古柏勒 Matthew Gray Gubler
      米兰达·奥图 Miranda Otto
      克里斯蒂娜·阿奎莱拉 Christina Aguilera
      海伦·约翰斯 Helen Johns
      凯尔·盖特豪斯 Kyle Gatehouse
      斯蒂芬妮·吴 Stephanie Ng Wan
      崔斯坦·D·拉勒 Tristan D. Lalla



◎简  介  

  两个在实验室的工作同事,他们共同设计一项发明,该发明用以证明完美恋爱关系的存在。

Video
ID : 1
Format : AVC
Format/Info : Advanced Video Codec
Format profile : [email protected]
Format settings : CABAC / 4 Ref Frames
Format settings, CABAC : Yes
Format settings, ReFrames : 4 frames
Codec ID : V_MPEG4/ISO/AVC
Duration : 1 h 44 min
Bit rate mode : Variable
Bit rate : 33.8 Mb/s
Maximum bit rate : 39.0 Mb/s
Width : 1 920 pixels
Height : 1 080 pixels
Display aspect ratio : 16:9
Frame rate mode : Constant
Frame rate : 23.976 (24000/1001) FPS
Color space : YUV
Chroma subsampling : 4:2:0
Bit depth : 8 bits
Scan type : Progressive
Bits/(Pixel*Frame) : 0.680
Stream size : 24.6 GiB (90%)
Title : Zoe.2018.1080p.BluRay.REMUX.AVC.DTS-HR.5.1-FGT
Language : English
Default : No
Forced : No
Audio #1
ID : 2
Format : DTS XBR
Format/Info : Digital Theater Systems
Commercial name : DTS-HD High Resolution Audio
Codec ID : A_DTS
Duration : 1 h 44 min
Bit rate mode : Constant
Bit rate : 2 046 kb/s
Channel(s) : 6 channels
Channel layout : C L R Ls Rs LFE
Sampling rate : 48.0 kHz
Frame rate : 93.750 FPS (512 SPF)
Bit depth : 24 bits
Compression mode : Lossy
Stream size : 1.49 GiB (5%)
Title : Zoe.2018.1080p.BluRay.REMUX.AVC.DTS-HR.5.1-FGT
Language : English
Default : Yes
Forced : No
Audio #2
ID : 3
Format : DTS
Format/Info : Digital Theater Systems
Codec ID : A_DTS
Duration : 1 h 44 min
Bit rate mode : Constant
Bit rate : 1 509 kb/s
Channel(s) : 6 channels
Channel layout : C L R Ls Rs LFE
Sampling rate : 48.0 kHz
Frame rate : 93.750 FPS (512 SPF)
Bit depth : 24 bits
Compression mode : Lossy
Stream size : 1.10 GiB (4%)
Title : Zoe.2018.1080p.BluRay.REMUX.AVC.DTS-HR.5.1-FGT
Language : English
Default : No
Forced : No
Menu
00:00:00.000 : en:Chapter 01
00:04:13.461 : en:Chapter 02
00:10:58.115 : en:Chapter 03
00:16:10.094 : en:Chapter 04
00:20:28.435 : en:Chapter 05
00:25:21.853 : en:Chapter 06
00:30:06.638 : en:Chapter 07
00:36:25.933 : en:Chapter 08
00:42:09.485 : en:Chapter 09
00:44:45.724 : en:Chapter 10
00:51:32.047 : en:Chapter 11
00:57:27.652 : en:Chapter 12
01:04:16.018 : en:Chapter 13
01:08:08.000 : en:Chapter 14
01:13:20.354 : en:Chapter 15
01:18:10.811 : en:Chapter 16
01:23:29.671 : en:Chapter 17
01:30:35.680 : en:Chapter 18
01:38:23.772 : en:Chapter 19





下载地址:
佐伊 Zoe.2018.1080p.BluRay.REMUX.AVC.DTS-HR.5.1-FGT 27GB
回复

使用道具 举报

您需要登录后才可以回帖 登录 | 立即注册

本版积分规则

快速回复 返回顶部 返回列表