找回密码
 立即注册
搜索

本文来自

影视资源

影视资源

订阅|关注 (31)

本站提供720p|1080p|4K 等超高清分辨率电影电视剧免费下载。

精选帖子

15万

主题

16万

帖子

48万

积分

网站编辑

Rank: 8Rank: 8

积分
480992

[超清电影] 守法公民 2009.2160p.BluRay.x264.8bit.SDR.DTS-HD.MA-SWTYBLZ 33GB

[复制链接]
530 99mp4 发表于 2018-11-9 01:02:59


◎译  名 守法公民 / 知法玩法 / 重案对决
◎片  名 Law Abiding Citizen
◎年  代 2009
◎产  地 美国
◎类  别 剧情 / 惊悚 / 犯罪
◎语  言 英语
◎上映日期 2009-10-16
◎IMDb评分 7.4/10 from 244585 users
◎IMDb链接 http://www.imdb.com/title/tt1197624
◎豆瓣评分 7.9/10 from 69850 users
◎豆瓣链接 https://movie.douban.com/subject/3009161/
◎久久MP4整理 http://www.99mp4.net
◎片  长 108 分钟
◎导  演 F. Gary Gray
◎编  剧 Kurt Wimmer
◎主  演 Jamie Foxx
      Gerard Butler
      Colm Meaney
      Bruce McGill
      Leslie Bibb
      Viola Davis



◎简  介  

  克莱德·谢尔顿(格莱德·巴特勒 Gerard Butler 饰)是居住在费城某小镇的一名研发人员,他有着美丽的妻子和可爱的女儿,生活幸福美满。但这一切都被突如其来的灾难所摧毁。某晚,两个暴徒闯入他的家中,妻子和女儿都受到残害。然而虽然证据确凿,但由于司法程序的迂腐和尼克·瑞斯(杰米·福克斯 Jamie Foxx 饰)助理执行官的堕落,最终让首犯克拉伦斯·多比(克里斯蒂安·斯多特 Christian Stolte 饰)因证据不足只得到10年徒刑。
本以为一切归于沉寂,但10年后当年未了的风波再起。怀着巨大仇恨的克莱德开始筹划展开报复,先是干掉了当年的从犯阿米,接着他很快找到了邪恶无耻的多比,并对其进行残酷的折磨与虐杀。克莱德的仇恨得到巨大的宣泄,但是他的复仇还未就此停止。他所针对的不只是那两个暴徒,而是整个腐朽堕落的司法系统……


Video
ID : 1
Format : AVC
Format/Info : Advanced Video Codec
Format profile : [email protected]
Format settings : CABAC / 5 Ref Frames
Format settings, CABAC : Yes
Format settings, RefFrames : 5 frames
Codec ID : V_MPEG4/ISO/AVC
Duration : 1 h 49 min
Bit rate : 34.9 Mb/s
Width : 3 840 pixels
Height : 1 600 pixels
Display aspect ratio : 2.40:1
Frame rate mode : Constant
Frame rate : 23.976 (24000/1001) FPS
Color space : YUV
Chroma subsampling : 4:2:0
Bit depth : 8 bits
Scan type : Progressive
Bits/(Pixel*Frame) : 0.237
Stream size : 26.6 GiB (80%)
Title : Law.Abiding.Citizen.2009.2160p.BluRay.x264.8bit.SDR.DTS-HD.MA.TrueHD.7.1.Atmos-SWTYBLZ
Writing library : x264 core 157 r2935 545de2f
Encoding settings : cabac=1 / ref=5 / deblock=1:-1:-1 / analyse=0x3:0x113 / me=umh / subme=10 / psy=1 / psy_rd=1.00:0.15 / mixed_ref=1 / me_range=48 / chroma_me=1 / trellis=2 / 8x8dct=1 / cqm=0 / deadzone=21,11 / fast_pskip=1 / chroma_qp_offset=-3 / threads=50 / lookahead_threads=4 / sliced_threads=0 / nr=0 / decimate=0 / interlaced=0 / bluray_compat=0 / constrained_intra=0 / bframes=3 / b_pyramid=2 / b_adapt=2 / b_bias=0 / direct=3 / weightb=1 / open_gop=0 / weightp=2 / keyint=250 / keyint_min=23 / scenecut=40 / intra_refresh=0 / rc_lookahead=50 / rc=crf / mbtree=1 / crf=18.0 / qcomp=0.60 / qpmin=0 / qpmax=69 / qpstep=4 / ip_ratio=1.40 / aq=1:1.00
Default : Yes
Forced : No
Audio #1
ID : 2
Format : MLP FBA 16-ch
Format/Info : Meridian Lossless Packing FBA with 16-channel presentation
Commercial name : Dolby TrueHD with Dolby Atmos
Codec ID : A_TRUEHD
Duration : 1 h 49 min
Bit rate mode : Variable
Bit rate : 4 186 kb/s
Maximum bit rate : 7 701 kb/s
Channel(s) : 8 channels
Channel layout : L R C LFE Ls Rs Lb Rb
Sampling rate : 48.0 kHz
Frame rate : 1 200.000 FPS (40 SPF)
Compression mode : Lossless
Stream size : 3.20 GiB (10%)
Title : Law.Abiding.Citizen.2009.2160p.BluRay.x264.8bit.SDR.DTS-HD.MA.TrueHD.7.1.Atmos-SWTYBLZ
Language : English
Default : Yes
Forced : No
Number of dynamic objects : 15
Bed channel count : 1 channel
Bed channel configuration : LFE
Audio #2
ID : 3
Format : DTS XLL
Format/Info : Digital Theater Systems
Commercial name : DTS-HD Master Audio
Codec ID : A_DTS
Duration : 1 h 49 min
Bit rate mode : Variable
Bit rate : 3 842 kb/s
Channel(s) : 8 channels
Channel layout : C L R LFE Lb Rb Lss Rss
Sampling rate : 48.0 kHz
Frame rate : 93.750 FPS (512 SPF)
Bit depth : 24 bits
Compression mode : Lossless
Stream size : 2.93 GiB (9%)
Title : Law.Abiding.Citizen.2009.2160p.BluRay.x264.8bit.SDR.DTS-HD.MA.TrueHD.7.1.Atmos-SWTYBLZ
Language : English
Default : No
Forced : No
Audio #3
ID : 4
Format : AC-3
Format/Info : Audio Coding 3
Commercial name : Dolby Digital
Codec ID : A_AC3
Duration : 1 h 49 min
Bit rate mode : Constant
Bit rate : 640 kb/s
Channel(s) : 6 channels
Channel layout : L R C LFE Ls Rs
Sampling rate : 48.0 kHz
Frame rate : 31.250 FPS (1536 SPF)
Bit depth : 16 bits
Compression mode : Lossy
Stream size : 500 MiB (1%)
Title : Law.Abiding.Citizen.2009.2160p.BluRay.x264.8bit.SDR.DTS-HD.MA.TrueHD.7.1.Atmos-SWTYBLZ
Language : English
Service kind : Complete Main
Default : No
Forced : No
Text #1
ID : 5
Format : UTF-8
Codec ID : S_TEXT/UTF8
Codec ID/Info : UTF-8 Plain Text
Duration : 1 h 37 min
Bit rate : 65 b/s
Count of elements : 1287
Stream size : 46.9 KiB (0%)
Title : English-SRT
Language : English
Default : Yes
Forced : No
Text #2
ID : 6
Format : UTF-8
Codec ID : S_TEXT/UTF8
Codec ID/Info : UTF-8 Plain Text
Duration : 1 h 44 min
Bit rate : 63 b/s
Count of elements : 1294
Stream size : 48.2 KiB (0%)
Title : English-SDH-SRT
Language : English
Default : No
Forced : No
Text #3
ID : 7
Format : PGS
Muxing mode : zlib
Codec ID : S_HDMV/PGS
Codec ID/Info : Picture based subtitle format used on BDs/HD-DVDs
Duration : 1 h 37 min
Bit rate : 39.8 kb/s
Count of elements : 2574
Stream size : 27.9 MiB (0%)
Title : English-PGS
Language : English
Default : No
Forced : No
Text #4
ID : 8
Format : PGS
Muxing mode : zlib
Codec ID : S_HDMV/PGS
Codec ID/Info : Picture based subtitle format used on BDs/HD-DVDs
Duration : 1 h 45 min
Bit rate : 40.2 kb/s
Count of elements : 2826
Stream size : 30.3 MiB (0%)
Title : English-SDH-PGS
Language : English
Default : No
Forced : No
Text #5
ID : 9
Format : PGS
Muxing mode : zlib
Codec ID : S_HDMV/PGS
Codec ID/Info : Picture based subtitle format used on BDs/HD-DVDs
Duration : 1 h 47 min
Bit rate : 35.2 kb/s
Count of elements : 2502
Stream size : 27.1 MiB (0%)
Title : Spanish-PGS
Language : Spanish
Default : No
Forced : No
Menu
00:00:00.000 : :Chapter 1
00:05:58.149 : :Chapter 2
00:12:14.066 : :Chapter 3
00:18:41.870 : :Chapter 4
00:26:56.448 : :Chapter 5
00:32:38.081 : :Chapter 6
00:40:16.038 : :Chapter 7
00:44:11.649 : :Chapter 8
00:47:28.262 : :Chapter 9
00:58:09.319 : :Chapter 10
01:06:15.554 : :Chapter 11
01:11:13.185 : :Chapter 12
01:16:45.767 : :Chapter 13
01:24:12.797 : :Chapter 14
01:35:39.817 : :Chapter 15
01:40:39.700 : :Chapter 16





下载地址:
守法公民 2009.2160p.BluRay.x264.8bit.SDR.DTS-HD.MA-SWTYBLZ 33GB
回复

使用道具 举报

您需要登录后才可以回帖 登录 | 立即注册

本版积分规则

快速回复 返回顶部 返回列表