找回密码
 立即注册
搜索

本文来自

影视资源

影视资源

订阅|关注 (31)

本站提供720p|1080p|4K 等超高清分辨率电影电视剧免费下载。

精选帖子

15万

主题

16万

帖子

48万

积分

网站编辑

Rank: 8Rank: 8

积分
480992

[超清电影] 黑色党徒 2018.2160p.BluRay.REMUX.HEVC.DTS-HD.MA.TrueHD.7.1.Atmos-FGT 81GB

[复制链接]
470 99mp4 发表于 2018-11-9 12:03:12


◎译  名 黑色党徒 / Black Klansman
◎片  名 BlacKkKlansman
◎年  代 2018
◎产  地 美国
◎类  别 喜剧 / 传记 / 犯罪
◎语  言 英语
◎上映日期 2018-05-14(戛纳电影节) / 2018-08-10(美国)
◎IMDb评分 7.7/10 from 48102 users
◎IMDb链接 http://www.imdb.com/title/tt7349662
◎豆瓣评分 7.0/10 from 2865 users
◎豆瓣链接 https://movie.douban.com/subject/27133913/
◎久久MP4整理 http://www.99mp4.net
◎片  长 135分钟
◎导  演 斯派克·李 Spike Lee
◎编  剧 斯派克·李 Spike Lee / David Rabinowitz / Charlie Wachtel / 凯文·威尔默特 Kevin Willmott / Ron Stallworth
◎主  演 约翰·大卫·华盛顿 John David Washington
      亚历克·鲍德温 Alec Baldwin
      小伊塞亚·维特洛克 Isiah Whitlock Jr.
      罗伯特·约翰·伯克 Robert John Burke
      布赖恩·塔伦蒂诺 Brian Tarantina
      阿瑟·J·纳斯加勒拉 Arthur J. Nascarella
      根·加里托 Ken Garito
      弗雷德里克·韦勒 Frederick Weller
      亚当·德赖弗 Adam Driver
      迈克尔·布谢米 Michael Buscemi
      劳拉·哈里尔 Laura Harrier
      达马里斯·刘易斯 Damaris Lewis
      科里·霍金斯 Corey Hawkins
      法龙·索尔兹伯里 Faron Salisbury
      瑞安·艾戈尔德 Ryan Eggold
      加斯帕·帕科农 Jasper P??kk?nen
      保罗·沃尔特·豪泽 Paul Walter Hauser
      阿什莉·阿特金森 Ashlie Atkinson
      托弗·戈瑞斯 Topher Grace
      维克托·科利采奇奥 Victor Colicchio




◎简  介  

  《黑色党徒》根据2014年罗恩·斯塔尔沃斯所著的自传改编,讲述了一名科罗拉多州的黑人警察,成功潜入当地的3K党组织做卧底的故事。

◎获奖情况  

  第71届戛纳电影节(2018)
  主竞赛单元 金棕榈奖(提名) 斯派克·李
  主竞赛单元 评审团大奖 斯派克·李

  第71届洛迦诺国际电影节(2018)
  观众选择奖 斯派克·李

  第28届哥谭独立电影奖(2018)
  最佳男演员(提名) 亚当·德赖弗

  第22届好莱坞电影奖(2018)
  年度突破男演员 约翰·大卫·华盛顿

Video #1
ID : 1
Format : HEVC
Format/Info : High Efficiency Video Coding
Commercial name : HDR10
Format profile : Main [email protected]@High
Codec ID : V_MPEGH/ISO/HEVC
Duration : 2 h 14 min
Bit rate : 68.6 Mb/s
Width : 3 840 pixels
Height : 2 160 pixels
Display aspect ratio : 16:9
Frame rate mode : Constant
Frame rate : 23.976 (24000/1001) FPS
Color space : YUV
Chroma subsampling : 4:2:0 (Type 2)
Bit depth : 10 bits
Bits/(Pixel*Frame) : 0.345
Stream size : 64.6 GiB (80%)
Title : BlacKkKlansman.2018.2160p.BluRay.REMUX.HEVC.DTS-HD.MA.TrueHD.7.1.Atmos-FGT
Default : Yes
Forced : No
Color range : Limited
Color primaries : BT.2020
Transfer characteristics : PQ
Matrix coefficients : BT.2020 non-constant
Mastering display color primaries : Display P3
Mastering display luminance : min: 0.0050 cd/m2, max: 1000 cd/m2
Maximum Content Light Level : 552 cd/m2
Maximum Frame-Average Light Level : 132 cd/m2
Video #2
ID : 2
Format : HEVC
Format/Info : High Efficiency Video Coding
Commercial name : HDR10
Format profile : Main [email protected]@High
Codec ID : V_MPEGH/ISO/HEVC
Duration : 2 h 14 min
Bit rate : 7 338 kb/s
Width : 1 920 pixels
Height : 1 080 pixels
Display aspect ratio : 16:9
Frame rate mode : Constant
Frame rate : 23.976 (24000/1001) FPS
Color space : YUV
Chroma subsampling : 4:2:0 (Type 2)
Bit depth : 10 bits
Bits/(Pixel*Frame) : 0.148
Stream size : 6.91 GiB (9%)
Title : BlacKkKlansman.2018.2160p.BluRay.REMUX.HEVC.DTS-HD.MA.TrueHD.7.1.Atmos-FGT
Default : No
Forced : No
Color range : Limited
Color primaries : BT.2020
Transfer characteristics : PQ
Matrix coefficients : BT.2020 non-constant
Mastering display color primaries : Display P3
Mastering display luminance : min: 0.0050 cd/m2, max: 1000 cd/m2
Audio #1
ID : 3
Format : MLP FBA 16-ch
Format/Info : Meridian Lossless Packing FBA with 16-channel presentation
Commercial name : Dolby TrueHD with Dolby Atmos
Codec ID : A_TRUEHD
Duration : 2 h 14 min
Bit rate mode : Variable
Bit rate : 3 950 kb/s
Maximum bit rate : 6 804 kb/s
Channel(s) : 8 channels
Channel layout : L R C LFE Ls Rs Lb Rb
Sampling rate : 48.0 kHz
Frame rate : 1 200.000 FPS (40 SPF)
Compression mode : Lossless
Stream size : 3.72 GiB (5%)
Title : BlacKkKlansman.2018.2160p.BluRay.REMUX.HEVC.DTS-HD.MA.TrueHD.7.1.Atmos-FGT
Language : English
Default : Yes
Forced : No
Number of dynamic objects : 11
Bed channel count : 1 channel
Bed channel configuration : LFE
Audio #2
ID : 4
Format : DTS XLL
Format/Info : Digital Theater Systems
Commercial name : DTS-HD Master Audio
Codec ID : A_DTS
Duration : 2 h 14 min
Bit rate mode : Variable
Bit rate : 4 263 kb/s
Channel(s) : 8 channels
Channel layout : C L R LFE Lb Rb Lss Rss
Sampling rate : 48.0 kHz
Frame rate : 93.750 FPS (512 SPF)
Bit depth : 24 bits
Compression mode : Lossless
Stream size : 4.01 GiB (5%)
Title : BlacKkKlansman.2018.2160p.BluRay.REMUX.HEVC.DTS-HD.MA.TrueHD.7.1.Atmos-FGT
Language : English
Default : No
Forced : No
Audio #3
ID : 5
Format : AC-3
Format/Info : Audio Coding 3
Commercial name : Dolby Digital
Codec ID : A_AC3
Duration : 2 h 14 min
Bit rate mode : Constant
Bit rate : 448 kb/s
Channel(s) : 6 channels
Channel layout : L R C LFE Ls Rs
Sampling rate : 48.0 kHz
Frame rate : 31.250 FPS (1536 SPF)
Bit depth : 16 bits
Compression mode : Lossy
Stream size : 432 MiB (1%)
Title : BlacKkKlansman.2018.2160p.BluRay.REMUX.HEVC.DTS-HD.MA.TrueHD.7.1.Atmos-FGT
Language : English
Service kind : Complete Main
Default : No
Forced : No
Audio #4
ID : 6
Format : AC-3
Format/Info : Audio Coding 3
Commercial name : Dolby Digital
Codec ID : A_AC3
Duration : 2 h 14 min
Bit rate mode : Constant
Bit rate : 640 kb/s
Channel(s) : 6 channels
Channel layout : L R C LFE Ls Rs
Sampling rate : 48.0 kHz
Frame rate : 31.250 FPS (1536 SPF)
Bit depth : 16 bits
Compression mode : Lossy
Stream size : 617 MiB (1%)
Title : BlacKkKlansman.2018.2160p.BluRay.REMUX.HEVC.DTS-HD.MA.TrueHD.7.1.Atmos-FGT
Language : Spanish
Service kind : Complete Main
Default : No
Forced : No
Audio #5
ID : 7
Format : E-AC-3
Format/Info : Enhanced AC-3
Commercial name : Dolby Digital Plus
Format profile : Blu-ray Disc
Codec ID : A_EAC3
Duration : 2 h 14 min
Bit rate mode : Constant
Bit rate : 768 kb/s
Channel(s) : 8 channels
Channel layout : L R C LFE Ls Rs Lb Rb
Sampling rate : 48.0 kHz
Frame rate : 31.250 FPS (1536 SPF)
Compression mode : Lossy
Stream size : 741 MiB (1%)
Title : BlacKkKlansman.2018.2160p.BluRay.REMUX.HEVC.DTS-HD.MA.TrueHD.7.1.Atmos-FGT
Language : French
Service kind : Complete Main
Default : No
Forced : No
Text #1
ID : 8
Format : PGS
Muxing mode : zlib
Codec ID : S_HDMV/PGS
Codec ID/Info : Picture based subtitle format used on BDs/HD-DVDs
Duration : 2 h 8 min
Bit rate : 60.7 kb/s
Count of elements : 5274
Stream size : 55.7 MiB (0%)
Title : English-PGS
Language : English
Default : Yes
Forced : No
Text #2
ID : 9
Format : PGS
Muxing mode : zlib
Codec ID : S_HDMV/PGS
Codec ID/Info : Picture based subtitle format used on BDs/HD-DVDs
Duration : 2 h 13 min
Bit rate : 54.2 kb/s
Count of elements : 5310
Stream size : 51.6 MiB (0%)
Title : Spanish-PGS
Language : Spanish
Default : No
Forced : No
Text #3
ID : 10
Format : PGS
Muxing mode : zlib
Codec ID : S_HDMV/PGS
Codec ID/Info : Picture based subtitle format used on BDs/HD-DVDs
Duration : 2 h 13 min
Bit rate : 48.4 kb/s
Count of elements : 4893
Stream size : 46.4 MiB (0%)
Title : French-PGS
Language : French
Default : No
Forced : No
Text #4
ID : 11
Format : PGS
Muxing mode : zlib
Codec ID : S_HDMV/PGS
Codec ID/Info : Picture based subtitle format used on BDs/HD-DVDs
Duration : 2 h 12 min
Bit rate : 1 374 b/s
Count of elements : 116
Stream size : 1.30 MiB (0%)
Title : Spanish-FORCED-PGS
Language : Spanish
Default : No
Forced : No
Text #5
ID : 12
Format : PGS
Muxing mode : zlib
Codec ID : S_HDMV/PGS
Codec ID/Info : Picture based subtitle format used on BDs/HD-DVDs
Duration : 2 h 13 min
Bit rate : 1 575 b/s
Count of elements : 128
Stream size : 1.51 MiB (0%)
Title : French-FORCED-PGS
Language : French
Default : No
Forced : No
Menu
00:00:00.000 : :Chapter 1
00:04:10.250 : :Chapter 2
00:13:54.875 : :Chapter 3
00:23:16.603 : :Chapter 4
00:27:56.508 : :Chapter 5
00:36:10.668 : :Chapter 6
00:43:21.557 : :Chapter 7
00:48:30.616 : :Chapter 8
00:54:58.628 : :Chapter 9
00:59:48.543 : :Chapter 10
01:07:04.770 : :Chapter 11
01:16:37.801 : :Chapter 12
01:22:20.393 : :Chapter 13
01:29:38.122 : :Chapter 14
01:39:10.653 : :Chapter 15
01:48:27.042 : :Chapter 16
01:56:05.583 : :Chapter 17
02:00:43.945 : :Chapter 18
02:03:57.430 : :Chapter 19
02:09:03.569 : :Chapter 20





下载地址:
黑色党徒 2018.2160p.BluRay.REMUX.HEVC.DTS-HD.MA.TrueHD.7.1.Atmos-FGT 81GB
回复

使用道具 举报

您需要登录后才可以回帖 登录 | 立即注册

本版积分规则

快速回复 返回顶部 返回列表