找回密码
 立即注册
搜索

本文来自

影视资源

影视资源

订阅|关注 (31)

本站提供720p|1080p|4K 等超高清分辨率电影电视剧免费下载。

精选帖子

15万

主题

16万

帖子

48万

积分

网站编辑

Rank: 8Rank: 8

积分
480992

[超清电影] 第一滴血2 1985.RE.1080p.BluRay.x264.DTS-HD.MA.5.1-SWTYBLZ 13GB

[复制链接]
440 99mp4 发表于 2018-11-9 12:03:14


◎译  名 第一滴血2 / 兰博2
◎片  名 Rambo: First Blood Part II
◎年  代 1985
◎产  地 美国
◎类  别 动作 / 惊悚 / 冒险
◎语  言 英语 / 越南语
◎上映日期 1985-05-22(美国)
◎IMDb评分 6.4/10 from 133555 users
◎IMDb链接 http://www.imdb.com/title/tt0089880
◎豆瓣评分 7.7/10 from 26071 users
◎豆瓣链接 https://movie.douban.com/subject/1300361/
◎片  长 96 分钟
◎导  演 George P. Cosmatos
◎编  剧 Sylvester Stallone / James Cameron / Kevin Jarre / David Morrell / George Cheung
◎主  演 Sylvester Stallone
      Richard Crenna
      Steven Berkoff
      Charles Napier
      Julia Nickson-Soul
      Martin Kove




◎简  介  

  神勇的蓝波(西尔维斯特?史泰龙 Sylvester Stallone 饰)又回来了!这次,蓝波奉命返回越南调查失踪的美军是否已成为战俘。然而,蓝波甫一登陆越南,所有装备和武器都丢失了!随身剩下的,只有一把军刀和一套军用弓箭。
身处逆境的蓝波,偶然发现了出卖他的正是自己的部队!蓝波在九死一生之际,得到了当地一名越南少女的帮助。在少女的帮助下,蓝波凭借其高超的求生技能和坚强的意志,克服了一切困难,终于逃出生天。
蓝波决定向出卖他的人重拳出击!

Video
ID : 1
Format : AVC
Format/Info : Advanced Video Codec
Format profile : [email protected]
Format settings : CABAC / 5 Ref Frames
Format settings, CABAC : Yes
Format settings, ReFrames : 5 frames
Codec ID : V_MPEG4/ISO/AVC
Duration : 1 h 35 min
Bit rate : 16.5 Mb/s
Width : 1 920 pixels
Height : 816 pixels
Display aspect ratio : 2.35:1
Frame rate mode : Constant
Frame rate : 24.000 FPS
Color space : YUV
Chroma subsampling : 4:2:0
Bit depth : 8 bits
Scan type : Progressive
Bits/(Pixel*Frame) : 0.440
Stream size : 11.1 GiB (80%)
Title : Rambo.First.Blood.Part.II.1985.REMASTERED.1080p.BluRay.x264.DTS-HD.MA.5.1-SWTYBLZ
Writing library : x264 core 157 r2935 545de2f
Encoding settings : cabac=1 / ref=5 / deblock=1:-1:-1 / analyse=0x3:0x133 / me=umh / subme=10 / psy=1 / psy_rd=1.00:0.15 / mixed_ref=1 / me_range=48 / chroma_me=1 / trellis=2 / 8x8dct=1 / cqm=0 / deadzone=21,11 / fast_pskip=1 / chroma_qp_offset=-3 / threads=25 / lookahead_threads=4 / sliced_threads=0 / nr=0 / decimate=0 / interlaced=0 / bluray_compat=0 / constrained_intra=0 / bframes=8 / b_pyramid=2 / b_adapt=2 / b_bias=0 / direct=3 / weightb=1 / open_gop=0 / weightp=2 / keyint=250 / keyint_min=24 / scenecut=40 / intra_refresh=0 / rc_lookahead=60 / rc=crf / mbtree=1 / crf=19.0 / qcomp=0.60 / qpmin=0 / qpmax=69 / qpstep=4 / ip_ratio=1.40 / aq=1:1.00
Default : Yes
Forced : No
Audio
ID : 2
Format : DTS XLL
Format/Info : Digital Theater Systems
Commercial name : DTS-HD Master Audio
Codec ID : A_DTS
Duration : 1 h 35 min
Bit rate mode : Variable
Bit rate : 4 174 kb/s
Channel(s) : 6 channels
Channel layout : C L R Ls Rs LFE
Sampling rate : 48.0 kHz
Frame rate : 93.750 FPS (512 SPF)
Bit depth : 24 bits
Compression mode : Lossless
Stream size : 2.79 GiB (20%)
Title : Rambo.First.Blood.Part.II.1985.REMASTERED.1080p.BluRay.x264.DTS-HD.MA.5.1-SWTYBLZ
Language : English
Default : Yes
Forced : No
Text #1
ID : 3
Format : UTF-8
Codec ID : S_TEXT/UTF8
Codec ID/Info : UTF-8 Plain Text
Duration : 1 h 34 min
Bit rate : 20 b/s
Count of elements : 414
Stream size : 14.3 KiB (0%)
Title : English-SRT
Language : English
Default : Yes
Forced : No
Text #2
ID : 4
Format : PGS
Muxing mode : zlib
Codec ID : S_HDMV/PGS
Codec ID/Info : Picture based subtitle format used on BDs/HD-DVDs
Duration : 1 h 34 min
Bit rate : 10.4 kb/s
Count of elements : 882
Stream size : 7.06 MiB (0%)
Title : English-PGS
Language : English
Default : No
Forced : No
Text #3
ID : 5
Format : PGS
Muxing mode : zlib
Codec ID : S_HDMV/PGS
Codec ID/Info : Picture based subtitle format used on BDs/HD-DVDs
Duration : 1 h 31 min
Bit rate : 11.7 kb/s
Count of elements : 842
Stream size : 7.68 MiB (0%)
Title : German-PGS
Language : German
Default : No
Forced : No
Text #4
ID : 6
Format : PGS
Muxing mode : zlib
Codec ID : S_HDMV/PGS
Codec ID/Info : Picture based subtitle format used on BDs/HD-DVDs
Duration : 1 h 31 min
Bit rate : 9 569 b/s
Count of elements : 960
Stream size : 6.26 MiB (0%)
Title : French-PGS
Language : French
Default : No
Forced : No
Menu
00:00:00.000 : :Chapter 1
00:09:02.083 : :Chapter 2
00:17:38.208 : :Chapter 3
00:26:11.625 : :Chapter 4
00:35:21.666 : :Chapter 5
00:45:45.541 : :Chapter 6
00:55:17.791 : :Chapter 7
01:06:15.083 : :Chapter 8
01:15:45.458 : :Chapter 9
01:26:23.666 : :Chapter 10





下载地址:
第一滴血2 1985.RE.1080p.BluRay.x264.DTS-HD.MA.5.1-SWTYBLZ 13GB
回复

使用道具 举报

您需要登录后才可以回帖 登录 | 立即注册

本版积分规则

快速回复 返回顶部 返回列表