找回密码
 立即注册
搜索

本文来自

影视资源

影视资源

订阅|关注 (31)

本站提供720p|1080p|4K 等超高清分辨率电影电视剧免费下载。

精选帖子

15万

主题

16万

帖子

48万

积分

网站编辑

Rank: 8Rank: 8

积分
480992

[超清电影] 撒旦遗产 Legacy.of.Satan.1974.1080p.BluRay.x264.DTS-FGT 6.3GB

[复制链接]
890 99mp4 发表于 2018-11-9 12:03:53



◎译  名 撒旦遗产
◎片  名 Legacy of Satan
◎年  代 1974
◎产  地 美国
◎类  别 恐怖
◎语  言 英语
◎上映日期 1974-04(美国)
◎IMDb评分 3.9/10 from 138 users
◎IMDb链接 http://www.imdb.com/title/tt0139421
◎久久MP4整理 http://www.99mp4.net
◎导  演 Gerard Damiano
◎编  剧 Gerard Damiano
◎主  演 John Francis
      Lisa Christian
      Paul Barry



◎简  介  

  A satanic cult chooses an unwitting young girl as its new queen.

Video
ID : 1
Format : AVC
Format/Info : Advanced Video Codec
Format profile : [email protected]
Format settings : CABAC / 4 Ref Frames
Format settings, CABAC : Yes
Format settings, ReFrames : 4 frames
Codec ID : V_MPEG4/ISO/AVC
Duration : 1 h 9 min
Bit rate : 11.5 Mb/s
Width : 1 920 pixels
Height : 1 078 pixels
Display aspect ratio : 16:9
Frame rate mode : Constant
Frame rate : 23.976 (24000/1001) FPS
Color space : YUV
Chroma subsampling : 4:2:0
Bit depth : 8 bits
Scan type : Progressive
Bits/(Pixel*Frame) : 0.232
Stream size : 5.57 GiB (88%)
Title : Legacy.of.Satan.1974.1080p.BluRay.x264.DTS-FGT
Writing library : x264 core 148 r2795M aaa9aa8
Encoding settings : cabac=1 / ref=4 / deblock=1:-2:-2 / analyse=0x3:0x113 / me=umh / subme=9 / psy=1 / psy_rd=1.00:0.15 / mixed_ref=1 / me_range=16 / chroma_me=1 / trellis=2 / 8x8dct=1 / cqm=0 / deadzone=21,11 / fast_pskip=1 / chroma_qp_offset=-3 / threads=24 / lookahead_threads=3 / sliced_threads=0 / nr=0 / decimate=1 / interlaced=0 / bluray_compat=0 / constrained_intra=0 / bframes=3 / b_pyramid=2 / b_adapt=1 / b_bias=0 / direct=3 / weightb=1 / open_gop=0 / weightp=2 / keyint=250 / keyint_min=25 / scenecut=40 / intra_refresh=0 / rc_lookahead=50 / rc=2pass / mbtree=1 / bitrate=11500 / ratetol=1.0 / qcomp=0.60 / qpmin=0 / qpmax=69 / qpstep=4 / cplxblur=20.0 / qblur=0.5 / vbv_maxrate=31250 / vbv_bufsize=31250 / nal_hrd=none / filler=0 / ip_ratio=1.40 / aq=1:1.00
Language : English
Default : Yes
Forced : No
Audio
ID : 2
Format : DTS
Format/Info : Digital Theater Systems
Codec ID : A_DTS
Duration : 1 h 9 min
Bit rate mode : Constant
Bit rate : 1 509 kb/s
Channel(s) : 2 channels
Channel layout : L R
Sampling rate : 48.0 kHz
Frame rate : 93.750 FPS (512 SPF)
Bit depth : 24 bits
Compression mode : Lossy
Stream size : 748 MiB (12%)
Title : Legacy.of.Satan.1974.1080p.BluRay.x264.DTS-FGT
Language : English
Default : No
Forced : No
Menu
00:00:00.000 : en:Chapter 01
00:09:04.877 : en:Chapter 02
00:20:25.933 : en:Chapter 03
00:29:41.488 : en:Chapter 04
00:39:52.932 : en:Chapter 05
00:49:52.948 : en:Chapter 06
00:59:55.133 : en:Chapter 07
01:09:15.860 : en:Chapter 08





下载地址:
撒旦遗产 Legacy.of.Satan.1974.1080p.BluRay.x264.DTS-FGT 6.3GB
回复

使用道具 举报

您需要登录后才可以回帖 登录 | 立即注册

本版积分规则

快速回复 返回顶部 返回列表