找回密码
 立即注册
搜索

本文来自

影视资源

影视资源

订阅|关注 (31)

本站提供720p|1080p|4K 等超高清分辨率电影电视剧免费下载。

精选帖子

15万

主题

16万

帖子

48万

积分

网站编辑

Rank: 8Rank: 8

积分
480992

[超清电影] Whispers.2015.1080p.AMZN.WEBRip.DDP2.0.x264-SiGMA 4.48GB

[复制链接]
630 99mp4 发表于 2018-11-9 13:01:07



◎译  名 
◎片  名 Whispers
◎年  代 2015
◎产  地 英国
◎类  别 剧情 / 悬疑 / 恐怖
◎语  言 英语
◎上映日期 2017-02-21(美国)
◎IMDb评分 6.4/10 from 8094 users
◎IMDb链接 http://www.imdb.com/title/tt1986202
◎久久MP4整理 http://www.99mp4.net
◎片  长 90分钟
◎导  演 Tammi Sutton
◎编  剧 Tammi Sutton
◎主  演 Keeley Hazell
      Craig Rees
      Barbara Nedeljakova




◎简  介  

  A young couple grieving the recent death of their daughter move to the countryside where they are haunted by their tragedy and a sinister darkness.

Video
ID : 1
Format : AVC
Format/Info : Advanced Video Codec
Format profile : [email protected]
Format settings : CABAC / 4 Ref Frames
Format settings, CABAC : Yes
Format settings, ReFrames : 4 frames
Codec ID : V_MPEG4/ISO/AVC
Duration : 1 h 29 min
Bit rate mode : Variable
Bit rate : 6 955 kb/s
Maximum bit rate : 15.0 Mb/s
Width : 1 920 pixels
Height : 1 080 pixels
Display aspect ratio : 16:9
Frame rate mode : Constant
Frame rate : 25.000 FPS
Color space : YUV
Chroma subsampling : 4:2:0
Bit depth : 8 bits
Scan type : Progressive
Bits/(Pixel*Frame) : 0.134
Stream size : 4.34 GiB (97%)
Default : Yes
Forced : No
Color range : Limited
Color primaries : BT.709
Transfer characteristics : BT.709
Matrix coefficients : BT.709
Audio
ID : 2
Format : E-AC-3
Format/Info : Enhanced AC-3
Commercial name : Dolby Digital Plus
Codec ID : A_EAC3
Duration : 1 h 29 min
Bit rate mode : Constant
Bit rate : 224 kb/s
Channel(s) : 2 channels
Channel layout : L R
Sampling rate : 48.0 kHz
Frame rate : 31.250 FPS (1536 SPF)
Compression mode : Lossy
Stream size : 143 MiB (3%)
Language : English
Service kind : Complete Main
Default : Yes
Forced : No
Text
ID : 3
Format : UTF-8
Codec ID : S_TEXT/UTF8
Codec ID/Info : UTF-8 Plain Text
Duration : 1 h 23 min
Bit rate : 28 b/s
Count of elements : 653
Stream size : 17.5 KiB (0%)
Title : English (SDH)
Language : English
Default : No
Forced : No





下载地址:
Whispers.2015.1080p.AMZN.WEBRip.DDP2.0.x264-SiGMA 4.48GB
回复

使用道具 举报

您需要登录后才可以回帖 登录 | 立即注册

本版积分规则

快速回复 返回顶部 返回列表