找回密码
 立即注册
搜索

本文来自

影视资源

影视资源

订阅|关注 (31)

本站提供720p|1080p|4K 等超高清分辨率电影电视剧免费下载。

精选帖子

15万

主题

16万

帖子

48万

积分

网站编辑

Rank: 8Rank: 8

积分
481688

[超清电影] 我们不用脱裤子就能玩到爽 2012.720p.AMZN.WEBRip.DD2.0.x264-AJP69 1.5GB

[复制链接]
2590 99mp4 发表于 2018-11-9 13:01:26




◎译  名 我们不用脱裤子就能玩到爽 / 我们不用很累很麻烦就能玩到爽
◎片  名 The Most Fun I've Ever Had with My Pants On
◎年  代 2012
◎产  地 美国
◎类  别 剧情 / 喜剧
◎语  言 英语
◎上映日期 2012-06-06(西雅图电影节) / 2012-09-14(魁北克电影节) / 2013
◎IMDb评分 6.5/10 from 82 users
◎IMDb链接 http://www.imdb.com/title/tt2187322
◎久久MP4整理 http://www.99mp4.net
◎导  演 Drew Denny
◎编  剧 Drew Denny
◎主  演 Drew Denny
      Sarah Hagan



◎简  介  

  The Most Fun I've Ever Had With My Pants On follows two childhood girlfriends Andy and Liv who reunite to scatter Andy's dad's ashes from LA to Austin where Liv will audition for the role of a vixen spy in a noir film. Between performing mini-funerals in surreal southwestern landscapes, the girls practice being bad. Hilarious dialog, military cross-dressing, an incredible underground soundtrack, and performances by Sarah Hagan (Freaks and Geeks, Buffy the Vampire Slayer) and writer/director Drew Denny in this mixed media dark comedy that interweaves autobiography, documentary, fiction and camp.


Video
ID : 1
Format : AVC
Format/Info : Advanced Video Codec
Format profile : [email protected]
Format settings : CABAC / 5 Ref Frames
Format settings, CABAC : Yes
Format settings, ReFrames : 5 frames
Codec ID : V_MPEG4/ISO/AVC
Duration : 1 h 36 min
Bit rate mode : Variable
Bit rate : 2 018 kb/s
Maximum bit rate : 4 500 kb/s
Width : 1 280 pixels
Height : 544 pixels
Display aspect ratio : 2.35:1
Original display aspect ratio : 2.35:1
Frame rate mode : Constant
Frame rate : 23.976 (24000/1001) FPS
Color space : YUV
Chroma subsampling : 4:2:0
Bit depth : 8 bits
Scan type : Progressive
Bits/(Pixel*Frame) : 0.121
Stream size : 1.35 GiB (90%)
Writing library : x264 core 148 r2623 d5b2374
Encoding settings : cabac=1 / ref=5 / deblock=1:-1:-1 / analyse=0x3:0x133 / me=umh / subme=9 / psy=1 / psy_rd=1.00:0.15 / mixed_ref=1 / me_range=24 / chroma_me=1 / trellis=2 / 8x8dct=1 / cqm=0 / deadzone=21,11 / fast_pskip=1 / chroma_qp_offset=-3 / threads=17 / lookahead_threads=2 / sliced_threads=0 / nr=150 / decimate=1 / interlaced=0 / bluray_compat=0 / constrained_intra=0 / bframes=8 / b_pyramid=2 / b_adapt=2 / b_bias=0 / direct=3 / weightb=1 / open_gop=0 / weightp=2 / keyint=120 / keyint_min=61 / scenecut=0 / intra_refresh=0 / rc_lookahead=120 / rc=crf / mbtree=1 / crf=18.0 / qcomp=0.60 / qpmin=0 / qpmax=69 / qpstep=4 / vbv_maxrate=4500 / vbv_bufsize=17500 / crf_max=0.0 / nal_hrd=vbr / filler=0 / ip_ratio=1.40 / aq=3:1.00
Default : Yes
Forced : No
Color range : Limited
Color primaries : BT.709
Transfer characteristics : BT.709
Matrix coefficients : BT.709
Audio
ID : 2
Format : E-AC-3
Format/Info : Enhanced AC-3
Commercial name : Dolby Digital Plus
Codec ID : A_EAC3
Duration : 1 h 36 min
Bit rate mode : Constant
Bit rate : 224 kb/s
Channel(s) : 2 channels
Channel layout : L R
Sampling rate : 48.0 kHz
Frame rate : 31.250 FPS (1536 SPF)
Compression mode : Lossy
Stream size : 154 MiB (10%)
Language : English
Service kind : Complete Main
Default : Yes
Forced : No
Text
ID : 3
Format : UTF-8
Codec ID : S_TEXT/UTF8
Codec ID/Info : UTF-8 Plain Text
Duration : 1 h 35 min
Bit rate : 36 b/s
Count of elements : 1169
Stream size : 25.6 KiB (0%)
Title : SDH
Language : English
Default : No
Forced : No





下载地址:
我们不用脱裤子就能玩到爽 2012.720p.AMZN.WEBRip.DD2.0.x264-AJP69 1.5GB
回复

使用道具 举报

您需要登录后才可以回帖 登录 | 立即注册

本版积分规则

快速回复 返回顶部 返回列表