找回密码
 立即注册
搜索

本文来自

影视资源

影视资源

订阅|关注 (31)

本站提供720p|1080p|4K 等超高清分辨率电影电视剧免费下载。

精选帖子

15万

主题

16万

帖子

48万

积分

网站编辑

Rank: 8Rank: 8

积分
480992

[超清电影] 喜剧演员生存指南 2016.1080p.AMZN.WEBRip.DDP5.1.x264-SiGMA 6.72GB

[复制链接]
570 99mp4 发表于 2018-11-9 13:01:36



◎译  名 喜剧演员生存指南
◎片  名 The Comedian's Guide to Survival
◎年  代 2016
◎产  地 英国
◎类  别 喜剧
◎语  言 英语
◎IMDb评分 4.8/10 from 212 users
◎IMDb链接 http://www.imdb.com/title/tt4871018
◎久久MP4整理 http://www.99mp4.net
◎导  演 Mark Murphy
◎编  剧 James Mullinger / Mark Murphy
◎主  演 詹姆斯·巴克利 James Buckley
      保罗·凯耶 Paul Kaye
      凯文·埃尔登 Kevin Eldon
      玛安娜·本灵 MyAnna Buring
      马克·希普 Mark Heap
      瓦斯·布莱克伍德 Vas Blackwood
      James Mullinger
      Jalaal Hartley
      Clair Buckley
      蒂姆·麦克纳尼 Tim McInnerny
      皮特·伍德瓦德 Peter Woodward
      Richard Sandling
      Natalie Stone
      David Hargreaves
      Charley Mcdougall


◎标  签 喜剧

◎简  介  

  James Mullinger 为成为一个著名的喜剧演员奋斗着(基于同名,一位真实的喜剧演员人生编著),他遇到了他人生的十字路口;没有人愿意看他的表演,他的妻子也厌倦可这种生活,并且他的老板给了他最后通牒-赶快提升,不要再做独角喜剧,否则坚持这样演喜剧,最终失去工作。在他的伤口上撒盐的是,他的老板把他送到洛杉矶去采访在现实杂志中才能见到的伟大的喜剧演员。当通过和他前辈英雄们度过时光后,一丝再次投身于独角喜剧的热情在他的体内燃烧起来。

Video
ID : 1
Format : AVC
Format/Info : Advanced Video Codec
Format profile : [email protected]
Format settings : CABAC / 4 Ref Frames
Format settings, CABAC : Yes
Format settings, ReFrames : 4 frames
Codec ID : V_MPEG4/ISO/AVC
Duration : 1 h 35 min
Bit rate mode : Constant
Bit rate : 10 000 kb/s
Width : 1 920 pixels
Height : 800 pixels
Display aspect ratio : 2.40:1
Frame rate mode : Constant
Frame rate : 24.000 FPS
Color space : YUV
Chroma subsampling : 4:2:0
Bit depth : 8 bits
Scan type : Progressive
Bits/(Pixel*Frame) : 0.271
Stream size : 6.55 GiB (97%)
Language : English
Default : Yes
Forced : No
Color range : Limited
Color primaries : BT.709
Transfer characteristics : BT.709
Matrix coefficients : BT.709
Audio
ID : 2
Format : E-AC-3
Format/Info : Enhanced AC-3
Commercial name : Dolby Digital Plus
Codec ID : A_EAC3
Duration : 1 h 35 min
Bit rate mode : Constant
Bit rate : 256 kb/s
Channel(s) : 6 channels
Channel layout : L R C LFE Ls Rs
Sampling rate : 48.0 kHz
Frame rate : 31.250 FPS (1536 SPF)
Compression mode : Lossy
Stream size : 175 MiB (3%)
Language : English
Service kind : Complete Main
Default : Yes
Forced : No





下载地址:
喜剧演员生存指南 2016.1080p.AMZN.WEBRip.DDP5.1.x264-SiGMA 6.72GB
回复

使用道具 举报

您需要登录后才可以回帖 登录 | 立即注册

本版积分规则

快速回复 返回顶部 返回列表