找回密码
 立即注册
搜索

本文来自

影视资源

影视资源

订阅|关注 (31)

本站提供720p|1080p|4K 等超高清分辨率电影电视剧免费下载。

精选帖子

15万

主题

16万

帖子

48万

积分

网站编辑

Rank: 8Rank: 8

积分
480992

[超清电影] 蓝色的时光 The.Blue.Hour.1971.720p.AMZN.WEBRip.DDP2.0.x264-SiGMA 2.7GB

[复制链接]
610 99mp4 发表于 2018-11-9 13:01:57



◎译  名 蓝色的时光
◎片  名 The Blue Hour
◎年  代 1971
◎产  地 美国
◎类  别 剧情
◎语  言 英语
◎IMDb评分 3.6/10 from 43 users
◎IMDb链接 http://www.imdb.com/title/tt3369134
◎久久MP4整理 http://www.99mp4.net
◎导  演 Sergei Goncharoff, Ron Nicholas
◎编  剧 Carl K. Hittleman
◎主  演 Anne Chapman, Nicholas Wayne, Mary Beth Hughes



◎简  介  

  A young girl with a shady past travels to Los Angeles and finds herself getting mixed up in the seedy and dark underbelly of the city.

Video
ID : 1
Format : AVC
Format/Info : Advanced Video Codec
Format profile : [email protected]
Format settings : CABAC / 5 Ref Frames
Format settings, CABAC : Yes
Format settings, ReFrames : 5 frames
Codec ID : V_MPEG4/ISO/AVC
Duration : 1 h 23 min
Bit rate : 4 445 kb/s
Width : 1 280 pixels
Height : 688 pixels
Display aspect ratio : 1.85:1
Frame rate mode : Constant
Frame rate : 23.976 (24000/1001) FPS
Color space : YUV
Chroma subsampling : 4:2:0
Bit depth : 8 bits
Scan type : Progressive
Bits/(Pixel*Frame) : 0.211
Stream size : 2.58 GiB (95%)
Default : Yes
Forced : No
Color range : Limited
Color primaries : BT.709
Transfer characteristics : BT.709
Matrix coefficients : BT.709
Audio
ID : 2
Format : E-AC-3
Format/Info : Enhanced AC-3
Commercial name : Dolby Digital Plus
Codec ID : A_EAC3
Duration : 1 h 23 min
Bit rate mode : Constant
Bit rate : 224 kb/s
Channel(s) : 2 channels
Channel layout : L R
Sampling rate : 48.0 kHz
Frame rate : 31.250 FPS (1536 SPF)
Compression mode : Lossy
Stream size : 133 MiB (5%)
Language : English
Service kind : Complete Main
Default : Yes
Forced : No
Text
ID : 3
Format : UTF-8
Codec ID : S_TEXT/UTF8
Codec ID/Info : UTF-8 Plain Text
Duration : 1 h 22 min
Bit rate : 29 b/s
Count of elements : 630
Stream size : 17.6 KiB (0%)
Title : English (SDH)
Language : English
Default : No
Forced : No






下载地址:
蓝色的时光 The.Blue.Hour.1971.720p.AMZN.WEBRip.DDP2.0.x264-SiGMA 2.7GB
回复

使用道具 举报

您需要登录后才可以回帖 登录 | 立即注册

本版积分规则

快速回复 返回顶部 返回列表