找回密码
 立即注册
搜索

本文来自

影视资源

影视资源

订阅|关注 (36)

本站提供720p|1080p|4K 等超高清分辨率电影电视剧免费下载。

精选帖子

16万

主题

16万

帖子

49万

积分

网站编辑

Rank: 8Rank: 8

积分
496667

[超清电影] 堕落之屋 House.of.Fallen.2008.1080p.BluRay.x264-SADPANDA 6.56GB

[复制链接]
1260 99mp4 发表于 2019-2-12 13:02:46



◎译  名 堕落之屋
◎片  名 House of Fallen
◎年  代 2008
◎产  地 美国
◎类  别 剧情 / 惊悚
◎语  言 英语
◎上映日期 2008
◎IMDb评分 2.7/10 from 133 users
◎IMDb链接 http://www.imdb.com/title/tt1074643
◎久久MP4整理 http://www.5199mp4.com/
◎片  长 95分钟
◎导  演 Robert Stephens
◎编  剧 Robert Stephens
◎主  演 C·托马斯·豪威尔 C. Thomas Howell


◎简  介  

  A mysterious group known as "The Twelve" makes war with the Grigori...fallen angels who walk the earth. House of Fallen is loosely based on the Book of Enoch.

Video
ID : 1
Format : AVC
Format/Info : Advanced Video Codec
Format profile : [email protected]
Format settings : CABAC / 4 Ref Frames
Format settings, CABAC : Yes
Format settings, ReFrames : 4 frames
Codec ID : V_MPEG4/ISO/AVC
Duration : 1 h 34 min
Bit rate : 9 436 kb/s
Width : 1 920 pixels
Height : 1 080 pixels
Display aspect ratio : 16:9
Frame rate mode : Constant
Frame rate : 23.976 (24000/1001) FPS
Color space : YUV
Chroma subsampling : 4:2:0
Bit depth : 8 bits
Scan type : Progressive
Bits/(Pixel*Frame) : 0.190
Stream size : 6.26 GiB (95%)
Writing library : x264 core 144 r2525 40bb568
Encoding settings : cabac=1 / ref=4 / deblock=1:0:0 / analyse=0x3:0x133 / me=umh / subme=8 / psy=1 / psy_rd=1.00:0.00 / mixed_ref=1 / me_range=16 / chroma_me=1 / trellis=1 / 8x8dct=1 / cqm=0 / deadzone=21,11 / fast_pskip=0 / chroma_qp_offset=-2 / threads=12 / lookahead_threads=2 / sliced_threads=0 / nr=0 / decimate=1 / interlaced=0 / bluray_compat=0 / constrained_intra=0 / bframes=3 / b_pyramid=2 / b_adapt=1 / b_bias=0 / direct=1 / weightb=1 / open_gop=0 / weightp=2 / keyint=250 / keyint_min=23 / scenecut=40 / intra_refresh=0 / rc_lookahead=40 / rc=2pass / mbtree=1 / bitrate=9436 / ratetol=1.0 / qcomp=0.60 / qpmin=0 / qpmax=69 / qpstep=4 / cplxblur=20.0 / qblur=0.5 / ip_ratio=1.40 / aq=1:1.00
Language : English
Default : Yes
Forced : No
Audio
ID : 2
Format : AC-3
Format/Info : Audio Coding 3
Commercial name : Dolby Digital
Codec ID : A_AC3
Duration : 1 h 34 min
Bit rate mode : Constant
Bit rate : 448 kb/s
Channel(s) : 6 channels
Channel layout : L R C LFE Ls Rs
Sampling rate : 48.0 kHz
Frame rate : 31.250 FPS (1536 SPF)
Bit depth : 16 bits
Compression mode : Lossy
Stream size : 304 MiB (5%)
Language : English
Service kind : Complete Main
Default : Yes
Forced : No






下载地址:
堕落之屋 House.of.Fallen.2008.1080p.BluRay.x264-SADPANDA 6.56GB
回复

使用道具 举报

您需要登录后才可以回帖 登录 | 立即注册

本版积分规则

快速回复 返回顶部 返回列表