找回密码
 立即注册
搜索
...

本文来自

影视资源

影视资源

订阅|关注 (38)

本站提供720p|1080p|4K 等超高清分辨率电影电视剧免费下载。

精选帖子

16万

主题

16万

帖子

50万

积分

网站编辑

Rank: 8Rank: 8

积分
503700

[超清电影] 神秘仙境 Ragnarok.2013.NORWEGIAN.1080p.BluRay.x264.DTS-FGT 6.93GB

[复制链接]
1890 99mp4 发表于 2019-2-12 13:03:00



◎译  名 神秘仙境 / 幽谷迷踪
◎片  名 G?ten Ragnarok
◎年  代 2013
◎产  地 挪威 Norway
◎类  别 动作 / 冒险
◎语  言 挪威语 Norwegian
◎上映日期 2013-10-04(挪威)
◎IMDb评分 5.9/10 from 6856 users
◎IMDb链接 http://www.imdb.com/title/tt2363213
◎豆瓣评分 4.9/10 from 877 users
◎豆瓣链接 https://movie.douban.com/subject/25834383/
◎久久MP4整理 http://www.5199mp4.com/
◎片  长 91分钟
◎导  演 Mikkel Br?nne Sandemose
◎编  剧 John K?re Raake
◎主  演 P?l Sverre Hagen
      Nicolai Cleve Broch
      比约恩·桑德奎斯特 Bj?rn Sundquist


◎标  签 冒险 | 挪威 | 科幻 | 奇幻 | 惊悚 | 挪威电影 | 2013 | 动作

◎简  介  

  当考古学家西格德对北欧神话的世界末日无法释怀的时候,他毅然决定与他两位同事带着自己的两个小孩开始了探索旅程,他们来到了芬兰马克,挪威的北部与苏联交界处的无人区。当他们解开真相时才发现,原来石碑符文并不是所想的那样,而是一个做梦也想不到的秘密。

Video
ID : 1
Format : AVC
Format/Info : Advanced Video Codec
Format profile : [email protected]
Format settings : CABAC / 5 Ref Frames
Format settings, CABAC : Yes
Format settings, ReFrames : 5 frames
Codec ID : V_MPEG4/ISO/AVC
Duration : 1 h 35 min
Bit rate : 8 882 kb/s
Width : 1 920 pixels
Height : 816 pixels
Display aspect ratio : 2.35:1
Frame rate mode : Constant
Frame rate : 23.976 (24000/1001) FPS
Color space : YUV
Chroma subsampling : 4:2:0
Bit depth : 8 bits
Scan type : Progressive
Bits/(Pixel*Frame) : 0.236
Stream size : 5.92 GiB (85%)
Writing library : x264 core 144 r2525 40bb568
Encoding settings : cabac=1 / ref=5 / deblock=1:0:0 / analyse=0x3:0x133 / me=umh / subme=8 / psy=1 / psy_rd=1.00:0.00 / mixed_ref=1 / me_range=16 / chroma_me=1 / trellis=1 / 8x8dct=1 / cqm=0 / deadzone=21,11 / fast_pskip=0 / chroma_qp_offset=-2 / threads=12 / lookahead_threads=2 / sliced_threads=0 / nr=0 / decimate=1 / interlaced=0 / bluray_compat=0 / constrained_intra=0 / bframes=3 / b_pyramid=2 / b_adapt=1 / b_bias=0 / direct=1 / weightb=1 / open_gop=0 / weightp=2 / keyint=250 / keyint_min=23 / scenecut=40 / intra_refresh=0 / rc_lookahead=40 / rc=2pass / mbtree=1 / bitrate=8882 / ratetol=1.0 / qcomp=0.60 / qpmin=0 / qpmax=69 / qpstep=4 / cplxblur=20.0 / qblur=0.5 / ip_ratio=1.40 / aq=1:1.00
Language : English
Default : Yes
Forced : No
Audio
ID : 2
Format : DTS
Format/Info : Digital Theater Systems
Codec ID : A_DTS
Duration : 1 h 35 min
Bit rate mode : Constant
Bit rate : 1 509 kb/s
Channel(s) : 6 channels
Channel layout : C L R Ls Rs LFE
Sampling rate : 48.0 kHz
Frame rate : 93.750 FPS (512 SPF)
Bit depth : 24 bits
Compression mode : Lossy
Stream size : 1.01 GiB (15%)
Language : Norwegian
Default : No
Forced : No
Text
ID : 3
Format : UTF-8
Codec ID : S_TEXT/UTF8
Codec ID/Info : UTF-8 Plain Text
Duration : 1 h 27 min
Bit rate : 22 b/s
Count of elements : 522
Stream size : 14.4 KiB (0%)
Language : English
Default : Yes
Forced : Yes





下载地址:
神秘仙境 Ragnarok.2013.NORWEGIAN.1080p.BluRay.x264.DTS-FGT 6.93GB
回复

使用道具 举报

您需要登录后才可以回帖 登录 | 立即注册

本版积分规则

快速回复 返回顶部 返回列表