找回密码
 立即注册
搜索

本文来自

影视资源

影视资源

订阅|关注 (36)

本站提供720p|1080p|4K 等超高清分辨率电影电视剧免费下载。

精选帖子

16万

主题

16万

帖子

49万

积分

网站编辑

Rank: 8Rank: 8

积分
496751

[超清电影] 霸主[中字]2018.2160p.BluRay.x265.10bit.HDR.DTS-SWTYBLZ 30.27GB

[复制链接]
710 99mp4 发表于 2019-2-12 15:03:07

自带官方中字


◎译  名 霸主 / 君主 / 大君主之役(港) / 大君主行动 / 霸王行动
◎片  名 Overlord
◎年  代 2018
◎产  地 美国 / 加拿大
◎类  别 动作 / 科幻 / 恐怖 / 战争
◎语  言 英语 / 俄语 / 法语 / 德语
◎上映日期 2018-11-09(美国)
◎IMDb评分 7.0/10 from 23211 users
◎IMDb链接 http://www.imdb.com/title/tt4530422
◎豆瓣评分 6.8/10 from 2654 users
◎豆瓣链接 https://movie.douban.com/subject/26969115/
◎久久MP4整理 http://www.5199mp4.com/
◎片  长 109分钟
◎导  演 朱利叶斯·艾弗里 Julius Avery
◎编  剧 比利·雷 Billy Ray / 马克·L·史密斯 Mark L. Smith
◎主  演 约翰·艾德坡 Jovan Adepo
      怀亚特·罗素 Wyatt Russell
      马蒂尔德·奥利维耶 Mathilde Ollivier
      皮鲁·埃斯贝克 Pilou Asb?k
      约翰·马加罗 John Magaro
      伊恩·德·卡斯泰克 Iain De Caestecker
      雅各布·安德森 Jacob Anderson
      多米尼克·阿普尔怀特 Dominic Applewhite
      博基姆·伍德拜因 Bokeem Woodbine
      恩里奇·雷德曼 Erich Redman
      马克·麦克肯纳 Mark McKenna
      海莉·卡迈克尔 Hayley Carmichael
      米迦勒·埃普 Michael Epp
      Ross Tomlinson
      本·特瓦索里 Ben Tavassoli
      安迪·韦勒姆 Andy Wareham
      帕特里克·布拉莫尔 Patrick Brammall
      肖恩·狄克逊 Shawn Dixon
      豪尔赫·莱昂·马丁内斯 Jorge Leon Martinez
      éva Magyar


◎标  签 战争 | 科幻 | 美国 | 恐怖 | 惊悚 | 丧尸 | 2018 | 超自然

◎简  介  

  J·J·艾布拉姆斯监制的科幻片、他的坏机器人制片公司的首部R级电影《霸王行动》发布海报,伞兵降落带着血腥。该片被很多影迷戏称为“《使命召唤》的僵尸模式”,讲述二战时期的诺曼底登陆遇上生化丧尸:
诺曼底“霸王行动”前夕,美国伞兵深入敌人后方,执行一项对入侵的成功至关重要的任务。但当接近目标时,他们开始意识到,在这个纳粹占领的村庄里发生的事情比简单军事行动要复杂许多,他们将与超自然力量斗争,而这些是纳粹实验的一部分。
Video
ID : 1
Format : HEVC
Format/Info : High Efficiency Video Coding
Commercial name : HDR10
Format profile : Main [email protected]@High
Codec ID : V_MPEGH/ISO/HEVC
Duration : 1 h 49 min
Bit rate : 29.7 Mb/s
Width : 3 840 pixels
Height : 1 600 pixels
Display aspect ratio : 2.40:1
Frame rate mode : Constant
Frame rate : 23.976 (24000/1001) FPS
Color space : YUV
Chroma subsampling : 4:2:0 (Type 2)
Bit depth : 10 bits
Bits/(Pixel*Frame) : 0.202
Stream size : 22.8 GiB (76%)
Title : Overlord.2018.2160p.BluRay.x265.10bit.HDR.DTS-HD.MA.TrueHD.7.1.Atmos-SWTYBLZ
Writing library : x265 3.0_RC 13-ae085e5cd8a2:[Windows][GCC 8.2.1][64 bit] 10bit
Encoding settings : cpuid=1111039 / frame-threads=16 / numa-pools=24,24,24,24 / wpp / no-pmode / no-pme / no-psnr / no-ssim / log-level=2 / input-csp=1 / input-res=3840x1600 / interlace=0 / total-frames=0 / level-idc=51 / high-tier=1 / uhd-bd=0 / ref=3 / no-allow-non-conformance / repeat-headers / annexb / aud / hrd / info / hash=0 / no-temporal-layers / no-open-gop / min-keyint=1 / keyint=24 / gop-lookahead=0 / bframes=4 / b-adapt=2 / b-pyramid / bframe-bias=0 / rc-lookahead=25 / lookahead-slices=4 / scenecut=40 / radl=0 / no-splice / no-intra-refresh / ctu=64 / min-cu-size=8 / no-rect / no-amp / max-tu-size=32 / tu-inter-depth=1 / tu-intra-depth=1 / limit-tu=0 / rdoq-level=0 / dynamic-rd=0.00 / no-ssim-rd / signhide / no-tskip / nr-intra=0 / nr-inter=0 / no-constrained-intra / strong-intra-smoothing / max-merge=2 / limit-refs=3 / no-limit-modes / me=1 / subme=2 / merange=57 / temporal-mvp / weightp / no-weightb / no-analyze-src-pics / deblock=0:0 / no-sao / no-sao-non-deblock / rd=3 / no-early-skip / rskip / no-fast-intra / no-tskip-fast / no-cu-lossless / no-b-intra / no-splitrd-skip / rdpenalty=0 / psy-rd=2.00 / psy-rdoq=0.00 / no-rd-refine / no-lossless / cbqpoffs=0 / crqpoffs=0 / rc=crf / crf=16.0 / qcomp=0.60 / qpstep=4 / stats-write=0 / stats-read=0 / vbv-maxrate=160000 / vbv-bufsize=160000 / vbv-init=0.9 / crf-max=0.0 / crf-min=0.0 / ipratio=1.40 / pbratio=1.30 / aq-mode=1 / aq-strength=1.00 / cutree / zone-count=0 / no-strict-cbr / qg-size=32 / no-rc-grain / qpmax=69 / qpmin=0 / no-const-vbv / sar=1 / overscan=0 / videoformat=5 / range=0 / colorprim=9 / transfer=16 / colormatrix=9 / chromaloc=1 / chromaloc-top=2 / chromaloc-bottom=2 / display-window=0 / master-display=G(13250,34500)B(7500,3000)R(34000,16000)WP(15635,16450)L(10000000,01) / max-cll=0,0 / min-luma=0 / max-luma=1023 / log2-max-poc-lsb=8 / vui-timing-info / vui-hrd-info / slices=1 / opt-qp-pps / opt-ref-list-length-pps / no-multi-pass-opt-rps / scenecut-bias=0.05 / no-opt-cu-delta-qp / no-aq-motion / hdr / hdr-opt / no-dhdr10-opt / no-idr-recovery-sei / analysis-reuse-level=5 / scale-factor=0 / refine-intra=0 / refine-inter=0 / refine-mv=0 / refine-ctu-distortion=0 / no-limit-sao / ctu-info=0 / no-lowpass-dct / refine-analysis-type=0 / copy-pic=1 / max-ausize-factor=1.0 / no-dynamic-refine / no-single-sei / no-hevc-aq / qp-adaptation-range=1.00
Default : Yes
Forced : No
Color range : Limited
Color primaries : BT.2020
Transfer characteristics : PQ
Matrix coefficients : BT.2020 non-constant
Mastering display color primaries : Display P3
Mastering display luminance : min: 0.0001 cd/m2, max: 1000 cd/m2
Audio #1
ID : 2
Format : MLP FBA 16-ch
Format/Info : Meridian Lossless Packing FBA with 16-channel presentation
Commercial name : Dolby TrueHD with Dolby Atmos
Codec ID : A_TRUEHD
Duration : 1 h 49 min
Bit rate mode : Variable
Bit rate : 4 723 kb/s
Maximum bit rate : 8 355 kb/s
Channel(s) : 8 channels
Channel layout : L R C LFE Ls Rs Lb Rb
Sampling rate : 48.0 kHz
Frame rate : 1 200.000 FPS (40 SPF)
Compression mode : Lossless
Delay relative to video : 33 ms
Stream size : 3.62 GiB (12%)
Title : Overlord.2018.2160p.BluRay.x265.10bit.HDR.DTS-HD.MA.TrueHD.7.1.Atmos-SWTYBLZ
Language : English
Default : Yes
Forced : No
Number of dynamic objects : 11
Bed channel count : 1 channel
Bed channel configuration : LFE
Audio #2
ID : 3
Format : DTS XLL
Format/Info : Digital Theater Systems
Commercial name : DTS-HD Master Audio
Codec ID : A_DTS
Duration : 1 h 49 min
Bit rate mode : Variable
Bit rate : 4 022 kb/s
Channel(s) : 8 channels
Channel layout : C L R LFE Lb Rb Lss Rss
Sampling rate : 48.0 kHz
Frame rate : 93.750 FPS (512 SPF)
Bit depth : 24 bits
Compression mode : Lossless
Stream size : 3.08 GiB (10%)
Title : Overlord.2018.2160p.BluRay.x265.10bit.HDR.DTS-HD.MA.TrueHD.7.1.Atmos-SWTYBLZ
Language : English
Default : No
Forced : No
Audio #3
ID : 4
Format : AC-3
Format/Info : Audio Coding 3
Commercial name : Dolby Digital
Codec ID : A_AC3
Duration : 1 h 49 min
Bit rate mode : Constant
Bit rate : 640 kb/s
Channel(s) : 6 channels
Channel layout : L R C LFE Ls Rs
Sampling rate : 48.0 kHz
Frame rate : 31.250 FPS (1536 SPF)
Bit depth : 16 bits
Compression mode : Lossy
Delay relative to video : 32 ms
Stream size : 502 MiB (2%)
Title : Overlord.2018.2160p.BluRay.x265.10bit.HDR.DTS-HD.MA.TrueHD.7.1.Atmos-SWTYBLZ
Language : English
Service kind : Complete Main
Default : No
Forced : No
Text #1
ID : 5
Format : UTF-8
Codec ID : S_TEXT/UTF8
Codec ID/Info : UTF-8 Plain Text
Duration : 1 h 4 min
Bit rate : 4 b/s
Count of elements : 91
Stream size : 2.02 KiB (0%)
Title : English-FORCED-SRT
Language : English
Default : Yes
Forced : Yes
Text #2
ID : 6
Format : UTF-8
Codec ID : S_TEXT/UTF8
Codec ID/Info : UTF-8 Plain Text
Duration : 1 h 42 min
Bit rate : 38 b/s
Count of elements : 1034
Stream size : 28.5 KiB (0%)
Title : English-SRT
Language : English
Default : No
Forced : No
Text #3
ID : 7
Format : UTF-8
Codec ID : S_TEXT/UTF8
Codec ID/Info : UTF-8 Plain Text
Duration : 1 h 42 min
Bit rate : 49 b/s
Count of elements : 1459
Stream size : 36.9 KiB (0%)
Title : English-SDH-SRT
Language : English
Default : No
Forced : No
Text #4
ID : 8
Format : PGS
Muxing mode : zlib
Codec ID : S_HDMV/PGS
Codec ID/Info : Picture based subtitle format used on BDs/HD-DVDs
Duration : 1 h 42 min
Bit rate : 8 623 b/s
Count of elements : 2034
Stream size : 6.30 MiB (0%)
Title : English-PGS
Language : English
Default : No
Forced : No
Text #5
ID : 9
Format : PGS
Muxing mode : zlib
Codec ID : S_HDMV/PGS
Codec ID/Info : Picture based subtitle format used on BDs/HD-DVDs
Duration : 1 h 42 min
Bit rate : 12.8 kb/s
Count of elements : 2917
Stream size : 9.35 MiB (0%)
Title : English-SDH-PGS
Language : English
Default : No
Forced : No
Text #6
ID : 10
Format : PGS
Muxing mode : zlib
Codec ID : S_HDMV/PGS
Codec ID/Info : Picture based subtitle format used on BDs/HD-DVDs
Duration : 1 h 49 min
Bit rate : 6 424 b/s
Count of elements : 1744
Stream size : 5.03 MiB (0%)
Title : Arabic-PGS
Language : Arabic
Default : No
Forced : No
Text #7
ID : 11
Format : PGS
Muxing mode : zlib
Codec ID : S_HDMV/PGS
Codec ID/Info : Picture based subtitle format used on BDs/HD-DVDs
Duration : 1 h 49 min
Bit rate : 8 446 b/s
Count of elements : 1936
Stream size : 6.62 MiB (0%)
Title : Malay-PGS
Language : Malay
Default : No
Forced : No
Text #8
ID : 12
Format : PGS
Muxing mode : zlib
Codec ID : S_HDMV/PGS
Codec ID/Info : Picture based subtitle format used on BDs/HD-DVDs
Duration : 1 h 49 min
Bit rate : 11.8 kb/s
Count of elements : 1758
Stream size : 9.22 MiB (0%)
Title : Chinese-PGS
Language : Chinese
Default : No
Forced : No
Text #9
ID : 13
Format : PGS
Muxing mode : zlib
Codec ID : S_HDMV/PGS
Codec ID/Info : Picture based subtitle format used on BDs/HD-DVDs
Duration : 1 h 49 min
Bit rate : 12.5 kb/s
Count of elements : 2038
Stream size : 9.83 MiB (0%)
Title : Czech-PGS
Language : Czech
Default : No
Forced : No
Text #10
ID : 14
Format : PGS
Muxing mode : zlib
Codec ID : S_HDMV/PGS
Codec ID/Info : Picture based subtitle format used on BDs/HD-DVDs
Duration : 1 h 49 min
Bit rate : 6 961 b/s
Count of elements : 1467
Stream size : 5.45 MiB (0%)
Title : Danish-PGS
Language : Danish
Default : No
Forced : No
Text #11
ID : 15
Format : PGS
Muxing mode : zlib
Codec ID : S_HDMV/PGS
Codec ID/Info : Picture based subtitle format used on BDs/HD-DVDs
Duration : 1 h 49 min
Bit rate : 7 926 b/s
Count of elements : 2042
Stream size : 6.21 MiB (0%)
Title : German-PGS
Language : German
Default : No
Forced : No
Text #12
ID : 16
Format : PGS
Muxing mode : zlib
Codec ID : S_HDMV/PGS
Codec ID/Info : Picture based subtitle format used on BDs/HD-DVDs
Duration : 1 h 49 min
Bit rate : 13.7 kb/s
Count of elements : 2036
Stream size : 10.7 MiB (0%)
Title : Greek-PGS
Language : Greek
Default : No
Forced : No
Text #13
ID : 17
Format : PGS
Muxing mode : zlib
Codec ID : S_HDMV/PGS
Codec ID/Info : Picture based subtitle format used on BDs/HD-DVDs
Duration : 1 h 49 min
Bit rate : 7 638 b/s
Count of elements : 1814
Stream size : 5.98 MiB (0%)
Title : Spanish-PGS
Language : Spanish
Default : No
Forced : No
Text #14
ID : 18
Format : PGS
Muxing mode : zlib
Codec ID : S_HDMV/PGS
Codec ID/Info : Picture based subtitle format used on BDs/HD-DVDs
Duration : 1 h 49 min
Bit rate : 7 433 b/s
Count of elements : 1722
Stream size : 5.82 MiB (0%)
Title : Spanish-PGS
Language : Spanish
Default : No
Forced : No
Text #15
ID : 19
Format : PGS
Muxing mode : zlib
Codec ID : S_HDMV/PGS
Codec ID/Info : Picture based subtitle format used on BDs/HD-DVDs
Duration : 1 h 49 min
Bit rate : 6 564 b/s
Count of elements : 1816
Stream size : 5.14 MiB (0%)
Title : French-PGS
Language : French
Default : No
Forced : No
Text #16
ID : 20
Format : PGS
Muxing mode : zlib
Codec ID : S_HDMV/PGS
Codec ID/Info : Picture based subtitle format used on BDs/HD-DVDs
Duration : 1 h 49 min
Bit rate : 16.1 kb/s
Count of elements : 2469
Stream size : 12.7 MiB (0%)
Title : Hindi-PGS
Language : Hindi
Default : No
Forced : No
Text #17
ID : 21
Format : PGS
Muxing mode : zlib
Codec ID : S_HDMV/PGS
Codec ID/Info : Picture based subtitle format used on BDs/HD-DVDs
Duration : 1 h 49 min
Bit rate : 7 269 b/s
Count of elements : 1742
Stream size : 5.69 MiB (0%)
Title : Italian-PGS
Language : Italian
Default : No
Forced : No
Text #18
ID : 22
Format : PGS
Muxing mode : zlib
Codec ID : S_HDMV/PGS
Codec ID/Info : Picture based subtitle format used on BDs/HD-DVDs
Duration : 1 h 42 min
Bit rate : 12.4 kb/s
Count of elements : 1668
Stream size : 9.05 MiB (0%)
Title : Japanese-PGS
Language : Japanese
Default : No
Forced : No
Text #19
ID : 23
Format : PGS
Muxing mode : zlib
Codec ID : S_HDMV/PGS
Codec ID/Info : Picture based subtitle format used on BDs/HD-DVDs
Duration : 1 h 49 min
Bit rate : 9 201 b/s
Count of elements : 2042
Stream size : 7.21 MiB (0%)
Title : Korean-PGS
Language : Korean
Default : No
Forced : No
Text #20
ID : 24
Format : PGS
Muxing mode : zlib
Codec ID : S_HDMV/PGS
Codec ID/Info : Picture based subtitle format used on BDs/HD-DVDs
Duration : 1 h 49 min
Bit rate : 12.8 kb/s
Count of elements : 2010
Stream size : 9.99 MiB (0%)
Title : Hungarian-PGS
Language : Hungarian
Default : No
Forced : No
Text #21
ID : 25
Format : PGS
Muxing mode : zlib
Codec ID : S_HDMV/PGS
Codec ID/Info : Picture based subtitle format used on BDs/HD-DVDs
Duration : 1 h 49 min
Bit rate : 11.8 kb/s
Count of elements : 1822
Stream size : 9.23 MiB (0%)
Title : Chinese-PGS
Language : Chinese
Default : No
Forced : No
Text #22
ID : 26
Format : PGS
Muxing mode : zlib
Codec ID : S_HDMV/PGS
Codec ID/Info : Picture based subtitle format used on BDs/HD-DVDs
Duration : 1 h 49 min
Bit rate : 6 433 b/s
Count of elements : 1390
Stream size : 5.04 MiB (0%)
Title : Dutch-PGS
Language : Dutch
Default : No
Forced : No
Text #23
ID : 27
Format : PGS
Muxing mode : zlib
Codec ID : S_HDMV/PGS
Codec ID/Info : Picture based subtitle format used on BDs/HD-DVDs
Duration : 1 h 49 min
Bit rate : 6 854 b/s
Count of elements : 1738
Stream size : 5.37 MiB (0%)
Title : Norwegian-PGS
Language : Norwegian
Default : No
Forced : No
Text #24
ID : 28
Format : PGS
Muxing mode : zlib
Codec ID : S_HDMV/PGS
Codec ID/Info : Picture based subtitle format used on BDs/HD-DVDs
Duration : 1 h 49 min
Bit rate : 11.0 kb/s
Count of elements : 1719
Stream size : 8.60 MiB (0%)
Title : Polish-PGS
Language : Polish
Default : No
Forced : No
Text #25
ID : 29
Format : PGS
Muxing mode : zlib
Codec ID : S_HDMV/PGS
Codec ID/Info : Picture based subtitle format used on BDs/HD-DVDs
Duration : 1 h 49 min
Bit rate : 6 138 b/s
Count of elements : 1744
Stream size : 4.81 MiB (0%)
Title : Portuguese-PGS
Language : Portuguese
Default : No
Forced : No
Text #26
ID : 30
Format : PGS
Muxing mode : zlib
Codec ID : S_HDMV/PGS
Codec ID/Info : Picture based subtitle format used on BDs/HD-DVDs
Duration : 1 h 49 min
Bit rate : 7 513 b/s
Count of elements : 1946
Stream size : 5.89 MiB (0%)
Title : Portuguese-PGS
Language : Portuguese
Default : No
Forced : No
Text #27
ID : 31
Format : PGS
Muxing mode : zlib
Codec ID : S_HDMV/PGS
Codec ID/Info : Picture based subtitle format used on BDs/HD-DVDs
Duration : 1 h 49 min
Bit rate : 12.1 kb/s
Count of elements : 1754
Stream size : 9.51 MiB (0%)
Title : Russian-PGS
Language : Russian
Default : No
Forced : No
Text #28
ID : 32
Format : PGS
Muxing mode : zlib
Codec ID : S_HDMV/PGS
Codec ID/Info : Picture based subtitle format used on BDs/HD-DVDs
Duration : 1 h 49 min
Bit rate : 11.3 kb/s
Count of elements : 1760
Stream size : 8.88 MiB (0%)
Title : Romanian-PGS
Language : Romanian
Default : No
Forced : No
Text #29
ID : 33
Format : PGS
Muxing mode : zlib
Codec ID : S_HDMV/PGS
Codec ID/Info : Picture based subtitle format used on BDs/HD-DVDs
Duration : 1 h 49 min
Bit rate : 12.4 kb/s
Count of elements : 2026
Stream size : 9.73 MiB (0%)
Title : Slovak-PGS
Language : Slovak
Default : No
Forced : No
Text #30
ID : 34
Format : PGS
Muxing mode : zlib
Codec ID : S_HDMV/PGS
Codec ID/Info : Picture based subtitle format used on BDs/HD-DVDs
Duration : 1 h 49 min
Bit rate : 7 097 b/s
Count of elements : 2038
Stream size : 5.56 MiB (0%)
Title : Finnish-PGS
Language : Finnish
Default : No
Forced : No
Text #31
ID : 35
Format : PGS
Muxing mode : zlib
Codec ID : S_HDMV/PGS
Codec ID/Info : Picture based subtitle format used on BDs/HD-DVDs
Duration : 1 h 49 min
Bit rate : 6 946 b/s
Count of elements : 1741
Stream size : 5.44 MiB (0%)
Title : Swedish-PGS
Language : Swedish
Default : No
Forced : No
Text #32
ID : 36
Format : PGS
Muxing mode : zlib
Codec ID : S_HDMV/PGS
Codec ID/Info : Picture based subtitle format used on BDs/HD-DVDs
Duration : 1 h 49 min
Bit rate : 8 903 b/s
Count of elements : 1760
Stream size : 6.97 MiB (0%)
Title : Thai-PGS
Language : Thai
Default : No
Forced : No
Text #33
ID : 37
Format : PGS
Muxing mode : zlib
Codec ID : S_HDMV/PGS
Codec ID/Info : Picture based subtitle format used on BDs/HD-DVDs
Duration : 1 h 49 min
Bit rate : 13.5 kb/s
Count of elements : 1744
Stream size : 10.6 MiB (0%)
Title : Turkish-PGS
Language : Turkish
Default : No
Forced : No
Menu
00:00:00.000 : :Chapter 1
00:06:30.264 : :Chapter 2
00:13:46.659 : :Chapter 3
00:20:30.479 : :Chapter 4
00:26:26.960 : :Chapter 5
00:34:08.129 : :Chapter 6
00:41:09.758 : :Chapter 7
00:48:40.542 : :Chapter 8
00:55:50.055 : :Chapter 9
01:03:20.630 : :Chapter 10
01:10:27.765 : :Chapter 11
01:17:21.053 : :Chapter 12
01:25:46.766 : :Chapter 13
01:32:18.324 : :Chapter 14
01:38:47.630 : :Chapter 15
01:42:38.360 : :Chapter 16












下载地址:
霸主中字.2018.2160p.BluRay.x265.10bit.HDR.DTS-SWTYBLZ 30.27GB
回复

使用道具 举报

您需要登录后才可以回帖 登录 | 立即注册

本版积分规则

快速回复 返回顶部 返回列表