找回密码
 立即注册
搜索
...

本文来自

影视资源

影视资源

订阅|关注 (38)

本站提供720p|1080p|4K 等超高清分辨率电影电视剧免费下载。

精选帖子

16万

主题

16万

帖子

50万

积分

网站编辑

Rank: 8Rank: 8

积分
503700

[超清电影] 伦敦场地 London.fields.2018.1080p.WEB-DL.DD5.1.H264-FGT 3.71GB

[复制链接]
3351 99mp4 发表于 2019-2-12 15:03:51



◎译  名 伦敦场地
◎片  名 London Fields
◎年  代 2018
◎产  地 美国
◎类  别 悬疑 / 惊悚 / 犯罪
◎语  言 英语
◎上映日期 2018-10-26(美国)
◎IMDb评分 4.5/10 from 825 users
◎IMDb链接 http://www.imdb.com/title/tt1273221
◎豆瓣评分 5.8/10 from 99 users
◎豆瓣链接 https://movie.douban.com/subject/3179698/
◎久久MP4整理 http://www.5199mp4.com/
◎片  长 118分钟
◎导  演 马提·卡伦 Mathew Cullen
◎编  剧 马丁·艾米斯 Martin Amis / Roberta Hanley
◎主  演 提奥·詹姆斯 Theo James
      约翰尼·德普 Johnny Depp
      安布尔·赫德 Amber Heard
      卡拉·迪瓦伊 Cara Delevingne
      比利·鲍伯·松顿 Billy Bob Thornton
      杰米·亚历山大 Jaimie Alexander
      吉姆·斯特吉斯 Jim Sturgess
      詹森·艾萨克 Jason Isaacs
      嘉玛·陈 Gemma Chan
      莉莉·科尔 Lily Cole
      詹妮弗·米索妮 Jennifer Missoni
      克雷格·加纳 Craig Garner
      Hon Ping Tang
      Alexandra Evans
      Stephen McDade



◎简  介  

  电影根据 Martin Amis 1989年出版的同名小说改编,讲述洞察力十足的女主人公Nicola Six 预感到有人要谋杀自己,她展开了一段多角的恋情,周旋于三个男人之中,因为她知道这三人当中的其中一人就是想要谋杀她的凶手!

◎获奖情况  

  第39届金酸莓奖(2019)
  最差女主角(提名) 艾梅柏·希尔德

Video
ID : 1
Format : AVC
Format/Info : Advanced Video Codec
Format profile : [email protected]
Format settings : CABAC / 5 Ref Frames
Format settings, CABAC : Yes
Format settings, ReFrames : 5 frames
Codec ID : V_MPEG4/ISO/AVC
Duration : 1 h 47 min
Bit rate : 4 555 kb/s
Width : 1 916 pixels
Height : 800 pixels
Display aspect ratio : 2.40:1
Frame rate mode : Constant
Frame rate : 23.976 (23976/1000) FPS
Color space : YUV
Chroma subsampling : 4:2:0
Bit depth : 8 bits
Scan type : Progressive
Bits/(Pixel*Frame) : 0.124
Stream size : 3.42 GiB (92%)
Title : London.fields.2018.1080p.WEB-DL.DD5.1.H264-FGT
Language : English
Default : Yes
Forced : No
Color range : Limited
Color primaries : BT.709
Transfer characteristics : BT.709
Matrix coefficients : BT.709
Audio
ID : 2
Format : AC-3
Format/Info : Audio Coding 3
Commercial name : Dolby Digital
Codec ID : A_AC3
Duration : 1 h 47 min
Bit rate mode : Constant
Bit rate : 384 kb/s
Channel(s) : 6 channels
Channel layout : L R C LFE Ls Rs
Sampling rate : 48.0 kHz
Frame rate : 31.250 FPS (1536 SPF)
Bit depth : 16 bits
Compression mode : Lossy
Delay relative to video : -42 ms
Stream size : 295 MiB (8%)
Title : London.fields.2018.1080p.WEB-DL.DD5.1.H264-FGT
Language : English
Service kind : Complete Main
Default : Yes
Forced : No
Menu
00:00:00.000 : en:Chapter 01
00:04:49.956 : en:Chapter 02
00:10:24.332 : en:Chapter 03
00:18:34.071 : en:Chapter 04
00:21:55.897 : en:Chapter 05
00:26:22.413 : en:Chapter 06
00:32:45.838 : en:Chapter 07
00:38:20.422 : en:Chapter 08
00:40:39.310 : en:Chapter 09
00:45:11.749 : en:Chapter 10
00:50:30.317 : en:Chapter 11
00:53:04.304 : en:Chapter 12
00:58:15.907 : en:Chapter 13
01:02:14.020 : en:Chapter 14
01:05:29.256 : en:Chapter 15
01:07:55.860 : en:Chapter 16
01:10:37.771 : en:Chapter 17
01:18:58.354 : en:Chapter 18
01:21:08.609 : en:Chapter 19
01:24:13.585 : en:Chapter 20
01:26:55.371 : en:Chapter 21
01:30:26.957 : en:Chapter 22
01:33:23.341 : en:Chapter 23
01:41:06.012 : en:Chapter 24





下载地址:
伦敦场地 London.fields.2018.1080p.WEB-DL.DD5.1.H264-FGT 3.71GB
回复

使用道具 举报

0

主题

24

帖子

304

积分

中级会员

Rank: 3Rank: 3

积分
304
吴文利 发表于 2019-2-13 21:43:07
感谢楼主分享
回复

使用道具 举报

您需要登录后才可以回帖 登录 | 立即注册

本版积分规则

快速回复 返回顶部 返回列表