找回密码
 立即注册
搜索

本文来自

影视资源

影视资源

订阅|关注 (36)

本站提供720p|1080p|4K 等超高清分辨率电影电视剧免费下载。

精选帖子

16万

主题

16万

帖子

49万

积分

网站编辑

Rank: 8Rank: 8

积分
494948

[超清电影] 奎迪2/奎迪:英雄再起 Creed.2.2018.1080p.WEB-DL.DD5.1.H264-FGT 4.48GB

[复制链接]
2910 99mp4 发表于 7 天前



◎译  名 奎迪:英雄再起 / Creed 2 / Creed: Revenge / 克里德2 / 奎迪2 / 洛奇8 / 金牌拳手2 / 金牌拳手:父仇(台)
◎片  名 Creed II
◎年  代 2018
◎产  地 美国
◎类  别 剧情 / 运动
◎语  言 英语
◎上映日期 2018-11-21(美国) / 2019-01-04(中国大陆)
◎IMDb评分 7.6/10 from 34513 users
◎IMDb链接 http://www.imdb.com/title/tt6343314
◎豆瓣评分 7.4/10 from 7633 users
◎豆瓣链接 https://movie.douban.com/subject/26707088/
◎久久MP4整理 http://www.5199mp4.com/
◎片  长 130分钟
◎导  演 小斯蒂芬·卡普尔 Steven Caple Jr.
◎编  剧 乔·霍代里·库克 Cheo Hodari Coker / 瑞恩·库格勒 Ryan Coogler / 萨沙·潘 Sascha Penn / 西尔维斯特·史泰龙 Sylvester Stallone / 朱埃尔·泰勒 Juel Taylor
◎主  演 迈克尔·B·乔丹 Michael B. Jordan
      西尔维斯特·史泰龙 Sylvester Stallone
      泰莎·汤普森 Tessa Thompson
      杜夫·龙格尔 Dolph Lundgren
      弗罗里安·穆特鲁 Florian Munteanu
      布里吉特·尼尔森 Brigitte Nielsen
      罗素·霍恩斯比 Russell Hornsby
      伍德·哈里斯 Wood Harris
      米洛·文堤米利亚 Milo Ventimiglia
      菲利西亚·拉斯海德 Phylicia Rashad
      迈克尔·巴佛 Michael Buffer
      安德烈·沃德 Andre Ward
      迈尔斯·哈姆帕斯 Myles Humphus
      伊沃·南迪 Ivo Nandi
      克里斯托弗·曼恩 Christopher Mann



◎简  介  

  《奎迪:英雄再起》讲述拳王奎迪迎战“父仇”对手,遭遇惨败跌入人生低谷,在教练洛奇和家人的帮助下,克服心理障碍重新振作的故事。

Video
ID : 1
Format : AVC
Format/Info : Advanced Video Codec
Format profile : [email protected]
Format settings : CABAC / 5 Ref Frames
Format settings, CABAC : Yes
Format settings, ReFrames : 5 frames
Codec ID : V_MPEG4/ISO/AVC
Duration : 2 h 9 min
Bit rate : 4 552 kb/s
Width : 1 920 pixels
Height : 800 pixels
Display aspect ratio : 2.40:1
Frame rate mode : Constant
Frame rate : 23.976 (23976/1000) FPS
Color space : YUV
Chroma subsampling : 4:2:0
Bit depth : 8 bits
Scan type : Progressive
Bits/(Pixel*Frame) : 0.124
Stream size : 4.13 GiB (92%)
Title : Creed.2.2018.1080p.WEB-DL.DD5.1.H264-FGT
Language : English
Default : Yes
Forced : No
Color range : Limited
Color primaries : BT.709
Transfer characteristics : BT.709
Matrix coefficients : BT.709
Audio
ID : 2
Format : AC-3
Format/Info : Audio Coding 3
Commercial name : Dolby Digital
Codec ID : A_AC3
Duration : 2 h 9 min
Bit rate mode : Constant
Bit rate : 384 kb/s
Channel(s) : 6 channels
Channel layout : L R C LFE Ls Rs
Sampling rate : 48.0 kHz
Frame rate : 31.250 FPS (1536 SPF)
Bit depth : 16 bits
Compression mode : Lossy
Delay relative to video : -42 ms
Stream size : 357 MiB (8%)
Title : Creed.2.2018.1080p.WEB-DL.DD5.1.H264-FGT
Language : English
Service kind : Complete Main
Default : Yes
Forced : No
Menu
00:00:00.000 : en:1
00:06:43.000 : en:2
00:12:06.000 : en:3
00:19:04.000 : en:4
00:26:00.000 : en:5
00:33:23.000 : en:6
00:38:35.000 : en:7
00:45:15.000 : en:8
00:51:48.000 : en:9
00:57:28.000 : en:10
01:04:25.000 : en:11
01:11:15.000 : en:12
01:17:52.000 : en:13
01:23:31.000 : en:14
01:30:41.000 : en:15
01:36:25.000 : en:16
01:42:12.000 : en:17
01:49:19.000 : en:18
01:55:35.000 : en:19
02:02:54.000 : en:20





下载地址:
奎迪2/奎迪:英雄再起 Creed.2.2018.1080p.WEB-DL.DD5.1.H264-FGT 4.48GB
回复

使用道具 举报

您需要登录后才可以回帖 登录 | 立即注册

本版积分规则

快速回复 返回顶部 返回列表