找回密码
 立即注册
搜索
...

本文来自

影视资源

影视资源

订阅|关注 (38)

本站提供720p|1080p|4K 等超高清分辨率电影电视剧免费下载。

精选帖子

16万

主题

16万

帖子

50万

积分

网站编辑

Rank: 8Rank: 8

积分
501637

[超清电影] 全面回忆 1990.Mind.B.E.1080p.BluRay.REMUX.AVC.DTS-HD.MA.5.1-FGT 27GB

[复制链接]
3351 99mp4 发表于 2019-3-13 18:06:31



◎译  名 全面回忆 / 宇宙威龙 / 魔鬼总动员
◎片  名 Total Recall
◎年  代 1990
◎产  地 美国
◎类  别 动作 / 科幻 / 惊悚 / 冒险
◎语  言 英语
◎上映日期 1990-06-01(美国)
◎IMDb评分 7.5/10 from 275331 users
◎IMDb链接 http://www.imdb.com/title/tt0100802
◎豆瓣评分 7.7/10 from 19297 users
◎豆瓣链接 https://movie.douban.com/subject/1295870/
◎久久MP4整理 http://899mp4.com/
◎片  长 113分钟
◎导  演 保罗·范霍文 Paul Verhoeven
◎编  剧 菲利普·迪克 Philip K. Dick / Ronald Shusett / 丹·欧班农 Dan O'Bannon / Jon Povill / 加里·戈德曼 Gary Goldman
◎主  演 阿诺·施瓦辛格 Arnold Schwarzenegger
      雷切尔·蒂科汀 Rachel Ticotin
      莎朗·斯通 Sharon Stone
      罗尼·考克斯 Ronny Cox
      迈克尔·艾恩塞德 Michael Ironside
      马绍尔·贝尔 Marshall Bell
      Mel Johnson Jr.
      Michael Champion
      Roy Brocksmith
      Ray Baker
      Rosemary Dunsmore
      David Knell
      Alexia Robinson
      迪恩·诺里斯 Dean Norris
      Mark Carlton
      Debbie Lee Carrington
      Lycia Naff
      罗伯特·康斯坦佐 Robert Costanzo
      Michael LaGuardia
      Priscilla Allen
      Marc Alaimo
      Michael Gregory


◎标  签 科幻 | 动作 | 美国 | 施瓦辛格 | 1990 | 美国电影 | ArnoldSchwarzenegger | 电影

◎简  介  

  未来世界中,工程工人道格拉斯(Arnold Schwarzenegger 饰)被持续的梦境困扰,那是一系列发生在红色火星上的体验。道格拉斯在广告上发现了回忆旅行公司的介绍,虽然同事警告他这种虚拟旅行可能会危害人类的大脑,但比起亲自去一趟充斥着反政府武装的火星,回忆旅行公司确是一个不错的选择。道格拉斯如愿接受了回忆旅行的服务,但是虚拟记忆的过程突然出现错误,自此一系列不可思议的经历出现在道格拉斯的身上,先是妻子劳瑞(Sharon Stone 饰)向他发起攻击并承认自己是监视道格拉斯的间谍,后来有陌生人出现帮助他逃脱并指出他是火星独裁者针对反政府武装派出的特工,结果因为一名女子梅丽(Rachel Ticotin 饰)改变了立场……道格拉斯动身前往火星,那里有一切的谜底,或者一切又只是梦境一场?

◎获奖情况  

  第63届奥斯卡金像奖(1991)
  最佳音效剪辑(提名) 斯蒂芬·亨特·弗利克
  最佳音响(提名) 亚伦·罗琴 / 迈克尔·J·科胡特 / Nelson Stoll / 卡洛斯·德拉里奥斯
  特别成就奖 Tim McGovern / 埃里克·布雷维格 / 罗伯·博汀

  第14届日本电影学院奖(1991)
  最佳外语片(提名)


Video
ID : 1
Format : AVC
Format/Info : Advanced Video Codec
Format profile : [email protected]
Format settings : CABAC / 2 Ref Frames
Format settings, CABAC : Yes
Format settings, ReFrames : 2 frames
Codec ID : V_MPEG4/ISO/AVC
Duration : 1 h 53 min
Bit rate mode : Variable
Bit rate : 24.0 Mb/s
Width : 1 920 pixels
Height : 1 080 pixels
Display aspect ratio : 16:9
Frame rate mode : Constant
Frame rate : 24.000 FPS
Color space : YUV
Chroma subsampling : 4:2:0
Bit depth : 8 bits
Scan type : Progressive
Bits/(Pixel*Frame) : 0.482
Stream size : 19.0 GiB (70%)
Title : Total.Recall.1990.Mind.Bending.Edition.1080p.BluRay.REMUX.AVC.DTS-HD.MA.5.1-FGT
Language : English
Default : No
Forced : No
Audio #1
ID : 2
Format : DTS XLL
Format/Info : Digital Theater Systems
Commercial name : DTS-HD Master Audio
Codec ID : A_DTS
Duration : 1 h 53 min
Bit rate mode : Variable
Bit rate : 2 157 kb/s
Channel(s) : 6 channels
Channel layout : C L R Ls Rs LFE
Sampling rate : 48.0 kHz
Frame rate : 93.750 FPS (512 SPF)
Bit depth : 16 bits
Compression mode : Lossless
Stream size : 1.71 GiB (6%)
Title : Total.Recall.1990.Mind.Bending.Edition.1080p.BluRay.REMUX.AVC.DTS-HD.MA.5.1-FGT
Language : English
Default : Yes
Forced : No
Audio #2
ID : 3
Format : DTS
Format/Info : Digital Theater Systems
Codec ID : A_DTS
Duration : 1 h 53 min
Bit rate mode : Constant
Bit rate : 1 509 kb/s
Channel(s) : 6 channels
Channel layout : C L R Ls Rs LFE
Sampling rate : 48.0 kHz
Frame rate : 93.750 FPS (512 SPF)
Bit depth : 16 bits
Compression mode : Lossy
Stream size : 1.20 GiB (4%)
Title : Total.Recall.1990.Mind.Bending.Edition.1080p.BluRay.REMUX.AVC.DTS-HD.MA.5.1-FGT
Language : English
Default : No
Forced : No
Audio #3
ID : 4
Format : DTS XLL
Format/Info : Digital Theater Systems
Commercial name : DTS-HD Master Audio
Codec ID : A_DTS
Duration : 1 h 53 min
Bit rate mode : Variable
Bit rate : 2 123 kb/s
Channel(s) : 6 channels
Channel layout : C L R Ls Rs LFE
Sampling rate : 48.0 kHz
Frame rate : 93.750 FPS (512 SPF)
Bit depth : 16 bits
Compression mode : Lossless
Stream size : 1.68 GiB (6%)
Title : Total.Recall.1990.Mind.Bending.Edition.1080p.BluRay.REMUX.AVC.DTS-HD.MA.5.1-FGT
Language : French
Default : No
Forced : No
Audio #4
ID : 5
Format : DTS
Format/Info : Digital Theater Systems
Codec ID : A_DTS
Duration : 1 h 53 min
Bit rate mode : Constant
Bit rate : 1 509 kb/s
Channel(s) : 6 channels
Channel layout : C L R Ls Rs LFE
Sampling rate : 48.0 kHz
Frame rate : 93.750 FPS (512 SPF)
Bit depth : 16 bits
Compression mode : Lossy
Stream size : 1.20 GiB (4%)
Title : Total.Recall.1990.Mind.Bending.Edition.1080p.BluRay.REMUX.AVC.DTS-HD.MA.5.1-FGT
Language : French
Default : No
Forced : No
Audio #5
ID : 6
Format : DTS XLL
Format/Info : Digital Theater Systems
Commercial name : DTS-HD Master Audio
Codec ID : A_DTS
Duration : 1 h 53 min
Bit rate mode : Variable
Bit rate : 1 001 kb/s
Channel(s) : 2 channels
Sampling rate : 48.0 kHz
Frame rate : 93.750 FPS (512 SPF)
Bit depth : 16 bits
Compression mode : Lossless
Stream size : 813 MiB (3%)
Title : Total.Recall.1990.Mind.Bending.Edition.1080p.BluRay.REMUX.AVC.DTS-HD.MA.5.1-FGT
Language : English
Default : No
Forced : No
Audio #6
ID : 7
Format : DTS
Format/Info : Digital Theater Systems
Codec ID : A_DTS
Duration : 1 h 53 min
Bit rate mode : Constant
Bit rate : 768 kb/s
Channel(s) : 2 channels
Channel layout : Lt Rt
Sampling rate : 48.0 kHz
Frame rate : 93.750 FPS (512 SPF)
Bit depth : 16 bits
Compression mode : Lossy
Stream size : 624 MiB (2%)
Title : Total.Recall.1990.Mind.Bending.Edition.1080p.BluRay.REMUX.AVC.DTS-HD.MA.5.1-FGT
Language : English
Default : No
Forced : No
Audio #7
ID : 8
Format : AC-3
Format/Info : Audio Coding 3
Commercial name : Dolby Digital
Codec ID : A_AC3
Duration : 1 h 53 min
Bit rate mode : Constant
Bit rate : 448 kb/s
Channel(s) : 6 channels
Channel layout : L R C LFE Ls Rs
Sampling rate : 48.0 kHz
Frame rate : 31.250 FPS (1536 SPF)
Bit depth : 16 bits
Compression mode : Lossy
Stream size : 364 MiB (1%)
Title : Total.Recall.1990.Mind.Bending.Edition.1080p.BluRay.REMUX.AVC.DTS-HD.MA.5.1-FGT
Language : Chinese
Service kind : Complete Main
Default : No
Forced : No
Audio #8
ID : 9
Format : AC-3
Format/Info : Audio Coding 3
Commercial name : Dolby Digital
Codec ID : A_AC3
Duration : 1 h 53 min
Bit rate mode : Constant
Bit rate : 448 kb/s
Channel(s) : 6 channels
Channel layout : L R C LFE Ls Rs
Sampling rate : 48.0 kHz
Frame rate : 31.250 FPS (1536 SPF)
Bit depth : 16 bits
Compression mode : Lossy
Stream size : 364 MiB (1%)
Title : Total.Recall.1990.Mind.Bending.Edition.1080p.BluRay.REMUX.AVC.DTS-HD.MA.5.1-FGT
Language : Chinese
Service kind : Complete Main
Default : No
Forced : No
Audio #9
ID : 10
Format : AC-3
Format/Info : Audio Coding 3
Commercial name : Dolby Digital
Codec ID : A_AC3
Duration : 1 h 53 min
Bit rate mode : Constant
Bit rate : 192 kb/s
Channel(s) : 2 channels
Channel layout : L R
Sampling rate : 48.0 kHz
Frame rate : 31.250 FPS (1536 SPF)
Bit depth : 16 bits
Compression mode : Lossy
Stream size : 156 MiB (1%)
Title : Total.Recall.1990.Mind.Bending.Edition.1080p.BluRay.REMUX.AVC.DTS-HD.MA.5.1-FGT
Language : English
Service kind : Complete Main
Default : No
Forced : No
Audio #10
ID : 11
Format : AC-3
Format/Info : Audio Coding 3
Commercial name : Dolby Digital
Codec ID : A_AC3
Duration : 1 h 53 min
Bit rate mode : Constant
Bit rate : 192 kb/s
Channel(s) : 2 channels
Channel layout : L R
Sampling rate : 48.0 kHz
Frame rate : 31.250 FPS (1536 SPF)
Bit depth : 16 bits
Compression mode : Lossy
Stream size : 156 MiB (1%)
Title : Total.Recall.1990.Mind.Bending.Edition.1080p.BluRay.REMUX.AVC.DTS-HD.MA.5.1-FGT
Language : German
Service kind : Complete Main
Default : No
Forced : No
Text #1
ID : 12
Format : PGS
Muxing mode : zlib
Codec ID : S_HDMV/PGS
Codec ID/Info : Picture based subtitle format used on BDs/HD-DVDs
Duration : 1 h 45 min
Bit rate : 37.7 kb/s
Count of elements : 2265
Stream size : 28.4 MiB (0%)
Title : English-PGS
Language : English
Default : Yes
Forced : No
Text #2
ID : 13
Format : PGS
Muxing mode : zlib
Codec ID : S_HDMV/PGS
Codec ID/Info : Picture based subtitle format used on BDs/HD-DVDs
Duration : 1 h 52 min
Bit rate : 29.9 kb/s
Count of elements : 2238
Stream size : 23.9 MiB (0%)
Title : French-PGS
Language : French
Default : No
Forced : No
Text #3
ID : 14
Format : PGS
Muxing mode : zlib
Codec ID : S_HDMV/PGS
Codec ID/Info : Picture based subtitle format used on BDs/HD-DVDs
Duration : 1 h 53 min
Bit rate : 61.7 kb/s
Count of elements : 3131
Stream size : 49.9 MiB (0%)
Title : French-FORCED-PGS
Language : French
Default : No
Forced : No
Menu
00:00:00.000 : en:Chapter 01
00:06:08.458 : en:Chapter 02
00:11:44.083 : en:Chapter 03
00:18:31.666 : en:Chapter 04
00:25:08.791 : en:Chapter 05
00:29:55.500 : en:Chapter 06
00:37:23.750 : en:Chapter 07
00:43:28.958 : en:Chapter 08
00:48:53.583 : en:Chapter 09
00:55:19.958 : en:Chapter 10
01:00:22.625 : en:Chapter 11
01:15:40.583 : en:Chapter 12
01:20:33.250 : en:Chapter 13
01:27:24.958 : en:Chapter 14
01:32:36.083 : en:Chapter 15
01:40:10.916 : en:Chapter 16





下载地址:
全面回忆 1990.Mind.B.E.1080p.BluRay.REMUX.AVC.DTS-HD.MA.5.1-FGT 27GB
回复

使用道具 举报

0

主题

1146

帖子

2883

积分

金牌会员

Rank: 6Rank: 6

积分
2883
mikeban 发表于 2019-3-14 12:35:03
  谢谢楼主分享!
回复

使用道具 举报

您需要登录后才可以回帖 登录 | 立即注册

本版积分规则

快速回复 返回顶部 返回列表