找回密码
 立即注册
搜索
...

本文来自

影视资源

影视资源

订阅|关注 (38)

本站提供720p|1080p|4K 等超高清分辨率电影电视剧免费下载。

精选帖子

16万

主题

16万

帖子

50万

积分

网站编辑

Rank: 8Rank: 8

积分
501637

[超清电影] 皮囊之下 Under.the.Skin.2013.1080p.BluRay.REMUX.AVC.DTS-HD.MA.5.1-FGT 16GB

[复制链接]
4200 99mp4 发表于 2019-3-13 18:06:42



◎译  名 皮囊之下 / 皮下之慌(港) / 肌肤之侵(台)
◎片  名 Under the Skin
◎年  代 2013
◎产  地 英国 / 美国 / 瑞士
◎类  别 科幻 / 恐怖
◎语  言 英语
◎上映日期 2013-09-03(威尼斯电影节) / 2014-03-14(英国)
◎IMDb评分 6.3/10 from 111239 users
◎IMDb链接 http://www.imdb.com/title/tt1441395
◎豆瓣评分 6.2/10 from 29969 users
◎豆瓣链接 https://movie.douban.com/subject/3749974/
◎久久MP4整理 http://899mp4.com/
◎片  长 107分钟
◎导  演 乔纳森·格雷泽 Jonathan Glazer
◎编  剧 瓦尔特·坎贝尔 Walter Campbell / 米歇尔·法贝尔 Michel Faber / 乔纳森·格雷泽 Jonathan Glazer
◎主  演 斯嘉丽·约翰逊 Scarlett Johansson
      杰里米·麦克威廉姆斯 Jeremy McWilliams
      琳西·泰勒·麦凯 Lynsey Taylor Mackay
      道基·麦康奈尔 Dougie McConnell
      凯文·麦卡林登 Kevin McAlinden
      克里斯托弗·哈德克 Krystof Hádek
      安东尼娅·坎贝尔·休斯 Antonia Campbell-Hughes
      Paul Brannigan


◎标  签 科幻 | 英国 | 美国 | 惊悚 | 2013 | 悬疑 | 文艺 | 剧情

◎简  介  

  不知从何时起,萧索的苏格兰街头出现了一个神秘女子(斯嘉丽·约翰逊 Scarlett Johansson 饰),她身着皮草,驾驶一辆汽车,不苟言笑的面庞隐约间弥散着摄人魅力。她时不时地与路边的男人搭讪,向他们问路,间或载着相中的男人同归。她走向黑暗的劲头,被欲望支配的男人们紧随其后,却全然未能觉察自己步入了怎样的深渊。男人有如飞蛾扑火,被抽取了骨血,只剩空空皮囊,薄如蝉翼。直到某个晚上,女人搭载了一个相貌极其丑陋的男子。他宛如怪物一般,自知丑陋而深深隐藏自己。女人如往常一样接纳了他,而从第二天起,似乎女人发现自己在悄悄发生着变化。她发现了这幅皮囊的可欣赏之处,享受作为女人的乐趣,却几乎忘记了本来的面目……
本片根据米歇尔·法贝尔(Michel Faber)的小说改编。

◎获奖情况  

  第70届威尼斯电影节(2013)
  金狮奖(提名) 乔纳森·格雷泽

  第27届欧洲电影奖(2014)
  最佳配乐 麦卡·利维

  第57届伦敦电影节(2013)
  最佳影片(提名) 乔纳森·格雷泽

  第30届美国独立精神奖(2015)
  最佳国际电影(提名) 乔纳森·格雷泽

  第16届英国独立电影奖(2013)
  最佳导演(提名) 乔纳森·格雷泽
  最佳女主角(提名) 斯嘉丽·约翰逊
  技术成就奖(提名)

  第24届哥谭独立电影奖(2014)
  最佳影片(提名) James Wilson / Nick Wechsler / 乔纳森·格雷泽
  最佳女演员(提名) 斯嘉丽·约翰逊

  第13届华盛顿影评人协会奖(2014)
  最佳女主角(提名) 斯嘉丽·约翰逊
  最佳摄影(提名) 丹尼尔·兰丁
  最佳原创配乐 麦卡·利维

  第40届洛杉矶影评人协会奖(2014)
  最佳配乐(提名) 麦卡·利维

  第27届芝加哥影评人协会奖(2014)
  最佳影片(提名)
  最佳女主角(提名) 斯嘉丽·约翰逊
  最佳改编剧本(提名) 瓦尔特·坎贝尔 / 乔纳森·格雷泽
  最佳原创配乐 麦卡·利维

  第18届美国在线影评人协会奖(2014)
  最佳影片(提名)
  最佳导演(提名) 乔纳森·格雷泽
  最佳改编剧本(提名) 瓦尔特·坎贝尔 / 乔纳森·格雷泽
  最佳摄影(提名) 丹尼尔·兰丁

Video
ID : 1
Format : AVC
Format/Info : Advanced Video Codec
Format profile : [email protected]
Format settings : CABAC / 4 Ref Frames
Format settings, CABAC : Yes
Format settings, ReFrames : 4 frames
Codec ID : V_MPEG4/ISO/AVC
Duration : 1 h 48 min
Bit rate mode : Variable
Bit rate : 17.8 Mb/s
Maximum bit rate : 37.0 Mb/s
Width : 1 920 pixels
Height : 1 080 pixels
Display aspect ratio : 16:9
Frame rate mode : Constant
Frame rate : 23.976 (24000/1001) FPS
Color space : YUV
Chroma subsampling : 4:2:0
Bit depth : 8 bits
Scan type : Progressive
Bits/(Pixel*Frame) : 0.358
Stream size : 13.5 GiB (79%)
Title : Under.the.Skin.2013.1080p.BluRay.REMUX.AVC.DTS-HD.MA.5.1-FGT
Language : English
Default : No
Forced : No
Audio #1
ID : 2
Format : DTS XLL
Format/Info : Digital Theater Systems
Commercial name : DTS-HD Master Audio
Codec ID : A_DTS
Duration : 1 h 48 min
Bit rate mode : Variable
Bit rate : 3 150 kb/s
Channel(s) : 6 channels
Channel layout : C L R Ls Rs LFE
Sampling rate : 48.0 kHz
Frame rate : 93.750 FPS (512 SPF)
Bit depth : 24 bits
Compression mode : Lossless
Stream size : 2.38 GiB (14%)
Title : Under.the.Skin.2013.1080p.BluRay.REMUX.AVC.DTS-HD.MA.5.1-FGT
Language : English
Default : Yes
Forced : No
Audio #2
ID : 3
Format : DTS
Format/Info : Digital Theater Systems
Codec ID : A_DTS
Duration : 1 h 48 min
Bit rate mode : Constant
Bit rate : 1 509 kb/s
Channel(s) : 6 channels
Channel layout : C L R Ls Rs LFE
Sampling rate : 48.0 kHz
Frame rate : 93.750 FPS (512 SPF)
Bit depth : 24 bits
Compression mode : Lossy
Stream size : 1.14 GiB (7%)
Title : Under.the.Skin.2013.1080p.BluRay.REMUX.AVC.DTS-HD.MA.5.1-FGT
Language : English
Default : No
Forced : No
Text #1
ID : 4
Format : PGS
Muxing mode : zlib
Codec ID : S_HDMV/PGS
Codec ID/Info : Picture based subtitle format used on BDs/HD-DVDs
Duration : 1 h 26 min
Bit rate : 9 996 b/s
Count of elements : 586
Stream size : 6.20 MiB (0%)
Title : English-PGS
Language : English
Default : Yes
Forced : No
Text #2
ID : 5
Format : PGS
Muxing mode : zlib
Codec ID : S_HDMV/PGS
Codec ID/Info : Picture based subtitle format used on BDs/HD-DVDs
Duration : 1 h 34 min
Bit rate : 12.4 kb/s
Count of elements : 804
Stream size : 8.39 MiB (0%)
Title : English-SDH-PGS
Language : English
Default : No
Forced : No
Text #3
ID : 6
Format : PGS
Muxing mode : zlib
Codec ID : S_HDMV/PGS
Codec ID/Info : Picture based subtitle format used on BDs/HD-DVDs
Duration : 1 h 27 min
Bit rate : 9 034 b/s
Count of elements : 544
Stream size : 5.63 MiB (0%)
Title : Spanish-PGS
Language : Spanish
Default : No
Forced : No
Menu
00:00:00.000 : en:Chapter 01
00:06:49.200 : en:Chapter 02
00:11:25.893 : en:Chapter 03
00:22:46.865 : en:Chapter 04
00:31:14.831 : en:Chapter 05
00:38:39.942 : en:Chapter 06
00:44:49.937 : en:Chapter 07
00:49:48.568 : en:Chapter 08
00:57:27.110 : en:Chapter 09
01:04:19.272 : en:Chapter 10
01:12:24.923 : en:Chapter 11
01:18:57.774 : en:Chapter 12
01:26:45.825 : en:Chapter 13
01:30:02.855 : en:Chapter 14
01:33:16.299 : en:Chapter 15
01:40:42.244 : en:Chapter 16





下载地址:
皮囊之下 Under.the.Skin.2013.1080p.BluRay.REMUX.AVC.DTS-HD.MA.5.1-FGT 16GB       
回复

使用道具 举报

您需要登录后才可以回帖 登录 | 立即注册

本版积分规则

快速回复 返回顶部 返回列表