找回密码
 立即注册
搜索

本文来自

影视资源

影视资源

订阅|关注 (40)

本站提供720p|1080p|4K 等超高清分辨率电影电视剧免费下载。

精选帖子

16万

主题

16万

帖子

50万

积分

网站编辑

Rank: 8Rank: 8

积分
506556

[超清电影] 星球大战前传2:克隆人的进攻 2002.1080p.BluRay.REMUX.AVC.DTS-FGT 38GB

[复制链接]
4290 99mp4 发表于 2019-3-13 19:05:10



◎译  名 星球大战前传2:克隆人的进攻 / 复制人的袭击 / 星战前传之克隆人的进攻 / 星球大战前传II:复制人侵略(港) / 星球大战第二集:克隆人的进攻 / 星际大战二部曲:复制人全面进攻(台)
◎片  名 Star Wars: Episode II - Attack of the Clones
◎年  代 2002
◎产  地 美国
◎类  别 动作 / 科幻 / 冒险
◎语  言 英语
◎上映日期 2002-05-16(美国) / 2002-07-12(中国大陆)
◎IMDb评分 6.6/10 from 566481 users
◎IMDb链接 http://www.imdb.com/title/tt0121765
◎豆瓣评分 7.9/10 from 62333 users
◎豆瓣链接 https://movie.douban.com/subject/1297785/
◎久久MP4整理 http://899mp4.com/
◎片  长 142分钟
◎导  演 乔治·卢卡斯 George Lucas
◎编  剧 乔治·卢卡斯 George Lucas / 乔纳森·黑尔斯 Jonathan Hales
◎主  演 伊万·麦克格雷格 Ewan McGregor
      娜塔莉·波特曼 Natalie Portman
      海登·克里斯滕森 Hayden Christensen
      克里斯托弗·李 Christopher Lee
      塞缪尔·杰克逊 Samuel L. Jackson
      弗兰克·奥兹 Frank Oz
      伊恩·麦克迪阿梅德 Ian McDiarmid
      潘妮拉·奥古斯特 Pernilla August
      特穆拉·莫里森 Temuera Morrison
      吉米·斯密茨 Jimmy Smits
      杰克·汤普森 Jack Thompson
      阿梅德·贝斯特 Ahmed Best
      萝丝·拜恩 Rose Byrne
      奥利弗·福德·戴维斯 Oliver Ford Davies
      利安娜·瓦尔斯曼 Leeanna Walsman


◎标  签 科幻 | 星球大战 | 美国 | 经典 | 2002 | 动作 | 冒险 | 战争

◎简  介  

  绝地武士战胜西斯学徒后十年,银河共和国再次面临威胁,前绝地武士杜库伯爵(克里斯托弗?李 Christopher Lee 饰)鼓动数千星系与共和国决裂,并筹建大批机器人军队为政变做准备。纳布星的阿米达拉(娜塔丽·波特曼 Natalie Portman 饰)结束女王任期后以议员身份抵达考路斯坎星,决意为组建共和军队投出关键一票。欧比-旺?肯诺比(伊万?麦克格雷格 Ewan McGregor 饰)携长大了的阿纳金(海登·克里斯滕森 Hayden Christensen 饰)奉命保护阿米达拉的安全。在阿纳金护送阿米达拉返回纳布星避难的途中,二人情愫暗生,决定共同前往塔图因星寻找阿纳金之母。与此同时,欧比-旺追查刺客行迹一路深入吉诺西斯星,发现了杜库伯爵的阴谋,自己却深陷囹圄,危在旦夕……
本片获2003年第75界奥斯卡最佳视觉效果奖提名。

◎获奖情况  

  第75届奥斯卡金像奖(2003)
  最佳视觉效果(提名) Rob Coleman / 巴勃罗·赫尔曼 / 约翰·诺尔 / Ben Snow

Video
ID : 1
Format : AVC
Format/Info : Advanced Video Codec
Format profile : [email protected]
Format settings : CABAC / 4 Ref Frames
Format settings, CABAC : Yes
Format settings, ReFrames : 4 frames
Codec ID : V_MPEG4/ISO/AVC
Duration : 2 h 22 min
Bit rate mode : Variable
Bit rate : 28.6 Mb/s
Maximum bit rate : 35.7 Mb/s
Width : 1 920 pixels
Height : 1 080 pixels
Display aspect ratio : 16:9
Frame rate mode : Constant
Frame rate : 23.976 (24000/1001) FPS
Color space : YUV
Chroma subsampling : 4:2:0
Bit depth : 8 bits
Scan type : Progressive
Bits/(Pixel*Frame) : 0.575
Stream size : 28.5 GiB (74%)
Title : Star.Wars.Episode.II.Attack.Of.The.Clones.2002.1080p.BluRay.REMUX.AVC.DTS-HD.MA.6.1-FGT
Language : English
Default : No
Forced : No
Audio #1
ID : 2
Format : DTS ES XXCH XLL
Format/Info : Digital Theater Systems
Commercial name : DTS-HD Master Audio
Codec ID : A_DTS
Duration : 2 h 22 min
Bit rate mode : Variable
Bit rate : 4 533 kb/s
Channel(s) : 7 channels
Channel layout : C L R Ls Rs LFE Cb
Sampling rate : 48.0 kHz
Frame rate : 93.750 FPS (512 SPF)
Bit depth : 24 bits
Compression mode : Lossless
Stream size : 4.51 GiB (12%)
Title : Star.Wars.Episode.II.Attack.Of.The.Clones.2002.1080p.BluRay.REMUX.AVC.DTS-HD.MA.6.1-FGT
Language : English
Default : Yes
Forced : No
Audio #2
ID : 3
Format : DTS ES XXCH
Format/Info : Digital Theater Systems
Commercial name : DTS-ES Discrete
Codec ID : A_DTS
Duration : 2 h 22 min
Bit rate mode : Constant
Bit rate : 1 509 kb/s
Channel(s) : 6 channels
Channel(s)_Original : 7 channels
Channel layout : C L R Ls Rs Cb LFE
Sampling rate : 48.0 kHz
Frame rate : 93.750 FPS (512 SPF)
Bit depth : 24 bits
Compression mode : Lossy
Stream size : 1.50 GiB (4%)
Title : Star.Wars.Episode.II.Attack.Of.The.Clones.2002.1080p.BluRay.REMUX.AVC.DTS-HD.MA.6.1-FGT
Language : English
Default : No
Forced : No
Audio #3
ID : 4
Format : AC-3
Format/Info : Audio Coding 3
Commercial name : Dolby Digital
Codec ID : A_AC3
Duration : 2 h 22 min
Bit rate mode : Constant
Bit rate : 448 kb/s
Channel(s) : 6 channels
Channel layout : L R C LFE Ls Rs
Sampling rate : 48.0 kHz
Frame rate : 31.250 FPS (1536 SPF)
Bit depth : 16 bits
Compression mode : Lossy
Stream size : 457 MiB (1%)
Title : Star.Wars.Episode.II.Attack.Of.The.Clones.2002.1080p.BluRay.REMUX.AVC.DTS-HD.MA.6.1-FGT
Language : English
Service kind : Complete Main
Default : No
Forced : No
Audio #4
ID : 5
Format : AC-3
Format/Info : Audio Coding 3
Commercial name : Dolby Digital
Codec ID : A_AC3
Duration : 2 h 22 min
Bit rate mode : Constant
Bit rate : 448 kb/s
Channel(s) : 6 channels
Channel layout : L R C LFE Ls Rs
Sampling rate : 48.0 kHz
Frame rate : 31.250 FPS (1536 SPF)
Bit depth : 16 bits
Compression mode : Lossy
Stream size : 457 MiB (1%)
Title : Star.Wars.Episode.II.Attack.Of.The.Clones.2002.1080p.BluRay.REMUX.AVC.DTS-HD.MA.6.1-FGT
Language : Spanish
Service kind : Complete Main
Default : No
Forced : No
Audio #5
ID : 6
Format : AC-3
Format/Info : Audio Coding 3
Commercial name : Dolby Digital
Codec ID : A_AC3
Duration : 2 h 22 min
Bit rate mode : Constant
Bit rate : 448 kb/s
Channel(s) : 6 channels
Channel layout : L R C LFE Ls Rs
Sampling rate : 48.0 kHz
Frame rate : 31.250 FPS (1536 SPF)
Bit depth : 16 bits
Compression mode : Lossy
Stream size : 457 MiB (1%)
Title : Star.Wars.Episode.II.Attack.Of.The.Clones.2002.1080p.BluRay.REMUX.AVC.DTS-HD.MA.6.1-FGT
Language : French
Service kind : Complete Main
Default : No
Forced : No
Audio #6
ID : 7
Format : DTS
Format/Info : Digital Theater Systems
Codec ID : A_DTS
Duration : 2 h 22 min
Bit rate mode : Constant
Bit rate : 768 kb/s
Channel(s) : 6 channels
Channel layout : C L R Ls Rs LFE
Sampling rate : 48.0 kHz
Frame rate : 93.750 FPS (512 SPF)
Bit depth : 24 bits
Compression mode : Lossy
Stream size : 783 MiB (2%)
Title : Star.Wars.Episode.II.Attack.Of.The.Clones.2002.1080p.BluRay.REMUX.AVC.DTS-HD.MA.6.1-FGT
Language : French
Default : No
Forced : No
Audio #7
ID : 8
Format : AC-3
Format/Info : Audio Coding 3
Commercial name : Dolby Digital
Codec ID : A_AC3
Duration : 2 h 22 min
Bit rate mode : Constant
Bit rate : 448 kb/s
Channel(s) : 6 channels
Channel layout : L R C LFE Ls Rs
Sampling rate : 48.0 kHz
Frame rate : 31.250 FPS (1536 SPF)
Bit depth : 16 bits
Compression mode : Lossy
Stream size : 457 MiB (1%)
Title : Star.Wars.Episode.II.Attack.Of.The.Clones.2002.1080p.BluRay.REMUX.AVC.DTS-HD.MA.6.1-FGT
Language : Portuguese
Service kind : Complete Main
Default : No
Forced : No
Audio #8
ID : 9
Format : AC-3
Format/Info : Audio Coding 3
Commercial name : Dolby Digital
Codec ID : A_AC3
Duration : 2 h 22 min
Bit rate mode : Constant
Bit rate : 224 kb/s
Channel(s) : 2 channels
Channel layout : L R
Sampling rate : 48.0 kHz
Frame rate : 31.250 FPS (1536 SPF)
Bit depth : 16 bits
Compression mode : Lossy
Stream size : 228 MiB (1%)
Title : Star.Wars.Episode.II.Attack.Of.The.Clones.2002.1080p.BluRay.REMUX.AVC.DTS-HD.MA.6.1-FGT
Language : English
Service kind : Complete Main
Default : No
Forced : No
Audio #9
ID : 10
Format : AC-3
Format/Info : Audio Coding 3
Commercial name : Dolby Digital
Codec ID : A_AC3
Duration : 2 h 22 min
Bit rate mode : Constant
Bit rate : 224 kb/s
Channel(s) : 2 channels
Channel layout : L R
Sampling rate : 48.0 kHz
Frame rate : 31.250 FPS (1536 SPF)
Bit depth : 16 bits
Compression mode : Lossy
Stream size : 228 MiB (1%)
Title : Star.Wars.Episode.II.Attack.Of.The.Clones.2002.1080p.BluRay.REMUX.AVC.DTS-HD.MA.6.1-FGT
Language : English
Service kind : Complete Main
Default : No
Forced : No
Text #1
ID : 11
Format : PGS
Muxing mode : zlib
Codec ID : S_HDMV/PGS
Codec ID/Info : Picture based subtitle format used on BDs/HD-DVDs
Duration : 2 h 22 min
Bit rate : 41.7 kb/s
Count of elements : 2656
Stream size : 42.4 MiB (0%)
Title : English-PGS
Language : English
Default : Yes
Forced : No
Text #2
ID : 12
Format : PGS
Muxing mode : zlib
Codec ID : S_HDMV/PGS
Codec ID/Info : Picture based subtitle format used on BDs/HD-DVDs
Duration : 2 h 22 min
Bit rate : 35.4 kb/s
Count of elements : 2282
Stream size : 36.0 MiB (0%)
Title : Spanish-PGS
Language : Spanish
Default : No
Forced : No
Text #3
ID : 13
Format : PGS
Muxing mode : zlib
Codec ID : S_HDMV/PGS
Codec ID/Info : Picture based subtitle format used on BDs/HD-DVDs
Duration : 2 h 17 min
Bit rate : 542 b/s
Count of elements : 34
Stream size : 545 KiB (0%)
Title : Spanish-FORCED-PGS
Language : Spanish
Default : No
Forced : No
Text #4
ID : 14
Format : PGS
Muxing mode : zlib
Codec ID : S_HDMV/PGS
Codec ID/Info : Picture based subtitle format used on BDs/HD-DVDs
Duration : 2 h 22 min
Bit rate : 513 b/s
Count of elements : 36
Stream size : 536 KiB (0%)
Title : French-FORCED-PGS
Language : French
Default : No
Forced : No
Text #5
ID : 15
Format : PGS
Muxing mode : zlib
Codec ID : S_HDMV/PGS
Codec ID/Info : Picture based subtitle format used on BDs/HD-DVDs
Duration : 2 h 17 min
Bit rate : 533 b/s
Count of elements : 34
Stream size : 536 KiB (0%)
Title : French-FORCED-PGS
Language : French
Default : No
Forced : No
Text #6
ID : 16
Format : PGS
Muxing mode : zlib
Codec ID : S_HDMV/PGS
Codec ID/Info : Picture based subtitle format used on BDs/HD-DVDs
Duration : 2 h 22 min
Bit rate : 33.8 kb/s
Count of elements : 2358
Stream size : 34.4 MiB (0%)
Title : French-PGS
Language : French
Default : No
Forced : No
Text #7
ID : 17
Format : PGS
Muxing mode : zlib
Codec ID : S_HDMV/PGS
Codec ID/Info : Picture based subtitle format used on BDs/HD-DVDs
Duration : 2 h 17 min
Bit rate : 575 b/s
Count of elements : 38
Stream size : 579 KiB (0%)
Title : French-FORCED-PGS
Language : French
Default : No
Forced : No
Text #8
ID : 18
Format : PGS
Muxing mode : zlib
Codec ID : S_HDMV/PGS
Codec ID/Info : Picture based subtitle format used on BDs/HD-DVDs
Duration : 2 h 22 min
Bit rate : 30.8 kb/s
Count of elements : 2206
Stream size : 31.3 MiB (0%)
Title : Dutch-PGS
Language : Dutch
Default : No
Forced : No
Text #9
ID : 19
Format : PGS
Muxing mode : zlib
Codec ID : S_HDMV/PGS
Codec ID/Info : Picture based subtitle format used on BDs/HD-DVDs
Duration : 2 h 22 min
Bit rate : 34.8 kb/s
Count of elements : 2312
Stream size : 35.4 MiB (0%)
Title : Portuguese-PGS
Language : Portuguese
Default : No
Forced : No
Text #10
ID : 20
Format : PGS
Muxing mode : zlib
Codec ID : S_HDMV/PGS
Codec ID/Info : Picture based subtitle format used on BDs/HD-DVDs
Duration : 2 h 17 min
Bit rate : 592 b/s
Count of elements : 34
Stream size : 596 KiB (0%)
Title : Portuguese-FORCED-PGS
Language : Portuguese
Default : No
Forced : No
Text #11
ID : 21
Format : PGS
Muxing mode : zlib
Codec ID : S_HDMV/PGS
Codec ID/Info : Picture based subtitle format used on BDs/HD-DVDs
Duration : 2 h 22 min
Bit rate : 30.5 kb/s
Count of elements : 2366
Stream size : 31.1 MiB (0%)
Title : Finnish-PGS
Language : Finnish
Default : No
Forced : No
Text #12
ID : 22
Format : PGS
Muxing mode : zlib
Codec ID : S_HDMV/PGS
Codec ID/Info : Picture based subtitle format used on BDs/HD-DVDs
Duration : 2 h 22 min
Bit rate : 31.9 kb/s
Count of elements : 2008
Stream size : 32.5 MiB (0%)
Title : Sewdish-PGS
Language : Swedish
Default : No
Forced : No
Text #13
ID : 23
Format : PGS
Muxing mode : zlib
Codec ID : S_HDMV/PGS
Codec ID/Info : Picture based subtitle format used on BDs/HD-DVDs
Duration : 2 h 22 min
Bit rate : 31.4 kb/s
Count of elements : 2134
Stream size : 32.0 MiB (0%)
Title : Norwegian-PGS
Language : Norwegian
Default : No
Forced : No
Text #14
ID : 24
Format : PGS
Muxing mode : zlib
Codec ID : S_HDMV/PGS
Codec ID/Info : Picture based subtitle format used on BDs/HD-DVDs
Duration : 2 h 22 min
Bit rate : 34.5 kb/s
Count of elements : 2148
Stream size : 35.2 MiB (0%)
Title : Danish-PGS
Language : Danish
Default : No
Forced : No
Text #15
ID : 25
Format : PGS
Muxing mode : zlib
Codec ID : S_HDMV/PGS
Codec ID/Info : Picture based subtitle format used on BDs/HD-DVDs
Duration : 2 h 21 min
Bit rate : 100 kb/s
Count of elements : 4602
Stream size : 102 MiB (0%)
Title : English-COMMENTARY-PGS
Language : English
Default : No
Forced : No
Text #16
ID : 26
Format : PGS
Muxing mode : zlib
Codec ID : S_HDMV/PGS
Codec ID/Info : Picture based subtitle format used on BDs/HD-DVDs
Duration : 2 h 21 min
Bit rate : 91.3 kb/s
Count of elements : 3757
Stream size : 92.6 MiB (0%)
Title : English-COMMENTARY-PGS
Language : English
Default : No
Forced : No
Text #17
ID : 27
Format : PGS
Muxing mode : zlib
Codec ID : S_HDMV/PGS
Codec ID/Info : Picture based subtitle format used on BDs/HD-DVDs
Duration : 2 h 21 min
Bit rate : 89.9 kb/s
Count of elements : 4597
Stream size : 91.2 MiB (0%)
Title : Spanish-COMMENTARY-PGS
Language : Spanish
Default : No
Forced : No
Text #18
ID : 28
Format : PGS
Muxing mode : zlib
Codec ID : S_HDMV/PGS
Codec ID/Info : Picture based subtitle format used on BDs/HD-DVDs
Duration : 2 h 21 min
Bit rate : 79.8 kb/s
Count of elements : 3742
Stream size : 81.0 MiB (0%)
Title : Spanish-COMMENTARY-PGS
Language : Spanish
Default : No
Forced : No
Text #19
ID : 29
Format : PGS
Muxing mode : zlib
Codec ID : S_HDMV/PGS
Codec ID/Info : Picture based subtitle format used on BDs/HD-DVDs
Duration : 2 h 21 min
Bit rate : 92.5 kb/s
Count of elements : 4598
Stream size : 93.8 MiB (0%)
Title : French-COMMENTARY-PGS
Language : French
Default : No
Forced : No
Text #20
ID : 30
Format : PGS
Muxing mode : zlib
Codec ID : S_HDMV/PGS
Codec ID/Info : Picture based subtitle format used on BDs/HD-DVDs
Duration : 2 h 21 min
Bit rate : 87.7 kb/s
Count of elements : 3752
Stream size : 89.0 MiB (0%)
Title : French-COMMENTARY-PGS
Language : French
Default : No
Forced : No
Text #21
ID : 31
Format : PGS
Muxing mode : zlib
Codec ID : S_HDMV/PGS
Codec ID/Info : Picture based subtitle format used on BDs/HD-DVDs
Duration : 2 h 21 min
Bit rate : 85.5 kb/s
Count of elements : 4598
Stream size : 86.8 MiB (0%)
Title : Dutch-COMMENTARY-PGS
Language : Dutch
Default : No
Forced : No
Text #22
ID : 32
Format : PGS
Muxing mode : zlib
Codec ID : S_HDMV/PGS
Codec ID/Info : Picture based subtitle format used on BDs/HD-DVDs
Duration : 2 h 21 min
Bit rate : 76.1 kb/s
Count of elements : 3736
Stream size : 77.3 MiB (0%)
Title : Dutch-COMMENTARY-PGS
Language : Dutch
Default : No
Forced : No
Text #23
ID : 33
Format : PGS
Muxing mode : zlib
Codec ID : S_HDMV/PGS
Codec ID/Info : Picture based subtitle format used on BDs/HD-DVDs
Duration : 2 h 21 min
Bit rate : 88.8 kb/s
Count of elements : 4598
Stream size : 90.2 MiB (0%)
Title : Portuguese-COMMENTARY-PGS
Language : Portuguese
Default : No
Forced : No
Text #24
ID : 34
Format : PGS
Muxing mode : zlib
Codec ID : S_HDMV/PGS
Codec ID/Info : Picture based subtitle format used on BDs/HD-DVDs
Duration : 2 h 21 min
Bit rate : 81.5 kb/s
Count of elements : 3746
Stream size : 82.8 MiB (0%)
Title : Portuguese-COMMENTARY-PGS
Language : Portuguese
Default : No
Forced : No
Text #25
ID : 35
Format : PGS
Muxing mode : zlib
Codec ID : S_HDMV/PGS
Codec ID/Info : Picture based subtitle format used on BDs/HD-DVDs
Duration : 2 h 21 min
Bit rate : 94.7 kb/s
Count of elements : 4606
Stream size : 96.1 MiB (0%)
Title : Finnish-COMMENTARY-PGS
Language : Finnish
Default : No
Forced : No
Text #26
ID : 36
Format : PGS
Muxing mode : zlib
Codec ID : S_HDMV/PGS
Codec ID/Info : Picture based subtitle format used on BDs/HD-DVDs
Duration : 2 h 21 min
Bit rate : 80.0 kb/s
Count of elements : 3751
Stream size : 81.2 MiB (0%)
Title : Finnish-COMMENTARY-PGS
Language : Finnish
Default : No
Forced : No
Text #27
ID : 37
Format : PGS
Muxing mode : zlib
Codec ID : S_HDMV/PGS
Codec ID/Info : Picture based subtitle format used on BDs/HD-DVDs
Duration : 2 h 21 min
Bit rate : 91.8 kb/s
Count of elements : 4604
Stream size : 93.2 MiB (0%)
Title : Swedish-COMMENTARY-PGS
Language : Swedish
Default : No
Forced : No
Text #28
ID : 38
Format : PGS
Muxing mode : zlib
Codec ID : S_HDMV/PGS
Codec ID/Info : Picture based subtitle format used on BDs/HD-DVDs
Duration : 2 h 21 min
Bit rate : 63.6 kb/s
Count of elements : 3739
Stream size : 64.5 MiB (0%)
Title : Swedish-COMMENTARY-PGS
Language : Swedish
Default : No
Forced : No
Text #29
ID : 39
Format : PGS
Muxing mode : zlib
Codec ID : S_HDMV/PGS
Codec ID/Info : Picture based subtitle format used on BDs/HD-DVDs
Duration : 2 h 21 min
Bit rate : 91.6 kb/s
Count of elements : 4602
Stream size : 92.9 MiB (0%)
Title : Norwegian-COMMENTARY-PGS
Language : Norwegian
Default : No
Forced : No
Text #30
ID : 40
Format : PGS
Muxing mode : zlib
Codec ID : S_HDMV/PGS
Codec ID/Info : Picture based subtitle format used on BDs/HD-DVDs
Duration : 2 h 21 min
Bit rate : 88.8 kb/s
Count of elements : 3746
Stream size : 90.2 MiB (0%)
Title : Norwegian-COMMENTARY-PGS
Language : Norwegian
Default : No
Forced : No
Text #31
ID : 41
Format : PGS
Muxing mode : zlib
Codec ID : S_HDMV/PGS
Codec ID/Info : Picture based subtitle format used on BDs/HD-DVDs
Duration : 2 h 21 min
Bit rate : 98.3 kb/s
Count of elements : 4622
Stream size : 99.8 MiB (0%)
Title : Danish-COMMENTARY-PGS
Language : Danish
Default : No
Forced : No
Text #32
ID : 42
Format : PGS
Muxing mode : zlib
Codec ID : S_HDMV/PGS
Codec ID/Info : Picture based subtitle format used on BDs/HD-DVDs
Duration : 2 h 21 min
Bit rate : 79.3 kb/s
Count of elements : 3743
Stream size : 80.5 MiB (0%)
Title : Danish-COMMENTARY-PGS
Language : Danish
Default : No
Forced : No
Text #33
ID : 43
Format : PGS
Muxing mode : zlib
Codec ID : S_HDMV/PGS
Codec ID/Info : Picture based subtitle format used on BDs/HD-DVDs
Duration : 2 h 21 min
Bit rate : 2 447 b/s
Count of elements : 510
Stream size : 2.48 MiB (0%)
Title : English-FORCED-PGS
Language : English
Default : No
Forced : No
Text #34
ID : 44
Format : PGS
Muxing mode : zlib
Codec ID : S_HDMV/PGS
Codec ID/Info : Picture based subtitle format used on BDs/HD-DVDs
Duration : 2 h 21 min
Bit rate : 2 447 b/s
Count of elements : 510
Stream size : 2.48 MiB (0%)
Title : English-FORCED-PGS
Language : English
Default : No
Forced : No
Text #35
ID : 45
Format : PGS
Muxing mode : zlib
Codec ID : S_HDMV/PGS
Codec ID/Info : Picture based subtitle format used on BDs/HD-DVDs
Duration : 2 h 21 min
Bit rate : 2 047 b/s
Count of elements : 366
Stream size : 2.08 MiB (0%)
Title : English-FORCED-PGS
Language : English
Default : No
Forced : No
Text #36
ID : 46
Format : PGS
Muxing mode : zlib
Codec ID : S_HDMV/PGS
Codec ID/Info : Picture based subtitle format used on BDs/HD-DVDs
Duration : 2 h 21 min
Bit rate : 2 047 b/s
Count of elements : 366
Stream size : 2.08 MiB (0%)
Title : English-FORCED-PGS
Language : English
Default : No
Forced : No
Text #37
ID : 47
Format : PGS
Muxing mode : zlib
Codec ID : S_HDMV/PGS
Codec ID/Info : Picture based subtitle format used on BDs/HD-DVDs
Duration : 2 h 22 min
Bit rate : 249 b/s
Count of elements : 36
Stream size : 260 KiB (0%)
Title : English-FORCED-PGS
Language : English
Default : No
Forced : No
Text #38
ID : 48
Format : PGS
Muxing mode : zlib
Codec ID : S_HDMV/PGS
Codec ID/Info : Picture based subtitle format used on BDs/HD-DVDs
Duration : 2 h 17 min
Bit rate : 258 b/s
Count of elements : 34
Stream size : 260 KiB (0%)
Title : English-FORCED-PGS
Language : English
Default : No
Forced : No
Menu
00:00:00.000 : en:Chapter 01
00:00:23.440 : en:Chapter 02
00:01:50.527 : en:Chapter 03
00:04:22.011 : en:Chapter 04
00:07:00.044 : en:Chapter 05
00:10:28.919 : en:Chapter 06
00:14:19.900 : en:Chapter 07
00:21:35.294 : en:Chapter 08
00:24:48.236 : en:Chapter 09
00:29:46.075 : en:Chapter 10
00:31:33.308 : en:Chapter 11
00:33:48.443 : en:Chapter 12
00:34:50.546 : en:Chapter 13
00:36:05.079 : en:Chapter 14
00:38:25.845 : en:Chapter 15
00:39:25.279 : en:Chapter 16
00:40:55.995 : en:Chapter 17
00:42:12.780 : en:Chapter 18
00:44:01.972 : en:Chapter 19
00:45:50.414 : en:Chapter 20
00:47:50.075 : en:Chapter 21
00:50:20.934 : en:Chapter 22
00:53:01.344 : en:Chapter 23
00:56:44.776 : en:Chapter 24
00:58:56.699 : en:Chapter 25
01:00:46.017 : en:Chapter 26
01:03:41.484 : en:Chapter 27
01:06:24.313 : en:Chapter 28
01:11:36.583 : en:Chapter 29
01:14:01.353 : en:Chapter 30
01:15:23.519 : en:Chapter 31
01:17:48.872 : en:Chapter 32
01:21:40.353 : en:Chapter 33
01:23:46.855 : en:Chapter 34
01:28:10.076 : en:Chapter 35
01:30:52.905 : en:Chapter 36
01:33:38.487 : en:Chapter 37
01:35:27.847 : en:Chapter 38
01:42:44.783 : en:Chapter 39
01:45:14.016 : en:Chapter 40
01:49:53.628 : en:Chapter 41
01:56:22.475 : en:Chapter 42
01:57:47.602 : en:Chapter 43
02:00:29.180 : en:Chapter 44
02:04:48.981 : en:Chapter 45
02:07:41.945 : en:Chapter 46
02:11:23.667 : en:Chapter 47
02:12:54.841 : en:Chapter 48
02:14:49.247 : en:Chapter 49
02:15:54.938 : en:Chapter 50





下载地址:
星球大战前传2:克隆人的进攻 2002.1080p.BluRay.REMUX.AVC.DTS-FGT 38GB
回复

使用道具 举报

您需要登录后才可以回帖 登录 | 立即注册

本版积分规则

快速回复 返回顶部 返回列表