找回密码
 立即注册
搜索

本文来自

影视资源

影视资源

订阅|关注 (40)

本站提供720p|1080p|4K 等超高清分辨率电影电视剧免费下载。

精选帖子

16万

主题

16万

帖子

50万

积分

网站编辑

Rank: 8Rank: 8

积分
506571

[超清电影] 死亡之蚁 Dead.Ant.2017.720p.BluRay.x264-SPECTACLE 4.35GB

[复制链接]
5790 99mp4 发表于 2019-3-13 19:05:27



◎译  名 死亡之蚁
◎片  名 Dead Ant
◎年  代 2017
◎产  地 美国
◎类  别 恐怖
◎语  言 英语
◎IMDb评分 5.1/10 from 208 users
◎IMDb链接 http://www.imdb.com/title/tt5265898
◎久久MP4整理 http://899mp4.com/
◎导  演 Ron Carlson
◎编  剧 Hank Braxtan / Ron Carlson
◎主  演 西恩·奥斯汀 Sean Astin
      杰克·布塞 Jake Busey
      汤姆·阿诺德 Tom Arnold
      瑞斯·考罗 Rhys Coiro
      丹尼·伍德伯恩 Danny Woodburn
      肖恩 C.菲利普斯 Shawn C. Phillips
      Nic Novicki



◎简  介  

  When the 1989 "one-hit-wonder" glam-metal band "Sonic Grave" embark on a trip to coachella in hopes of a comeback, their peyote trip pit stop in Joshua Tree incites an "unworldly" viscous attack, and they must "rock" themselves out of harms way.

Video
ID : 1
Format : AVC
Format/Info : Advanced Video Codec
Format profile : [email protected]
Format settings : CABAC / 9 Ref Frames
Format settings, CABAC : Yes
Format settings, ReFrames : 9 frames
Codec ID : V_MPEG4/ISO/AVC
Duration : 1 h 27 min
Bit rate : 6 506 kb/s
Width : 1 280 pixels
Height : 536 pixels
Display aspect ratio : 2.40:1
Frame rate mode : Constant
Frame rate : 23.976 (24000/1001) FPS
Color space : YUV
Chroma subsampling : 4:2:0
Bit depth : 8 bits
Scan type : Progressive
Bits/(Pixel*Frame) : 0.396
Stream size : 3.96 GiB (91%)
Writing library : x264 core 157 r2935 545de2f
Encoding settings : cabac=1 / ref=9 / deblock=1:-3:-3 / analyse=0x3:0x133 / me=umh / subme=10 / psy=1 / psy_rd=1.00:0.00 / mixed_ref=1 / me_range=32 / chroma_me=1 / trellis=2 / 8x8dct=1 / cqm=0 / deadzone=21,11 / fast_pskip=0 / chroma_qp_offset=-2 / threads=9 / lookahead_threads=2 / sliced_threads=0 / nr=0 / decimate=1 / interlaced=0 / bluray_compat=0 / constrained_intra=0 / bframes=12 / b_pyramid=2 / b_adapt=2 / b_bias=0 / direct=3 / weightb=1 / open_gop=0 / weightp=2 / keyint=240 / keyint_min=23 / scenecut=40 / intra_refresh=0 / rc_lookahead=60 / rc=2pass / mbtree=0 / bitrate=6506 / ratetol=1.0 / qcomp=0.60 / qpmin=0 / qpmax=69 / qpstep=4 / cplxblur=20.0 / qblur=0.5 / vbv_maxrate=62500 / vbv_bufsize=78125 / nal_hrd=none / filler=0 / ip_ratio=1.40 / pb_ratio=1.30 / aq=1:0.70
Default : Yes
Forced : No
Audio
ID : 2
Format : AC-3
Format/Info : Audio Coding 3
Commercial name : Dolby Digital
Codec ID : A_AC3
Duration : 1 h 27 min
Bit rate mode : Constant
Bit rate : 640 kb/s
Channel(s) : 6 channels
Channel layout : L R C LFE Ls Rs
Sampling rate : 48.0 kHz
Frame rate : 31.250 FPS (1536 SPF)
Bit depth : 16 bits
Compression mode : Lossy
Stream size : 401 MiB (9%)
Language : English
Service kind : Complete Main
Default : Yes
Forced : No
Text #1
ID : 3
Format : UTF-8
Codec ID : S_TEXT/UTF8
Codec ID/Info : UTF-8 Plain Text
Duration : 1 h 23 min
Bit rate : 61 b/s
Count of elements : 1813
Stream size : 37.6 KiB (0%)
Language : English
Default : No
Forced : No
Text #2
ID : 4
Format : UTF-8
Codec ID : S_TEXT/UTF8
Codec ID/Info : UTF-8 Plain Text
Duration : 1 h 24 min
Bit rate : 65 b/s
Count of elements : 2054
Stream size : 40.5 KiB (0%)
Language : English
Default : No
Forced : No
Menu
00:00:00.000 : :Chapter 01
00:14:32.288 : :Chapter 02
00:23:15.978 : :Chapter 03
00:31:27.177 : :Chapter 04
00:43:33.319 : :Chapter 05
00:54:14.001 : :Chapter 06
01:05:39.185 : :Chapter 07
01:20:48.927 : :Chapter 08





下载地址:
死亡之蚁 Dead.Ant.2017.720p.BluRay.x264-SPECTACLE 4.35GB
回复

使用道具 举报

您需要登录后才可以回帖 登录 | 立即注册

本版积分规则

快速回复 返回顶部 返回列表