找回密码
 立即注册
搜索

本文来自

影视资源

影视资源

订阅|关注 (40)

本站提供720p|1080p|4K 等超高清分辨率电影电视剧免费下载。

精选帖子

16万

主题

16万

帖子

50万

积分

网站编辑

Rank: 8Rank: 8

积分
506556

[超清电影] 我不在这儿 Im.Not.Here.2017.720p.AMZN.WEBRip.DDP5.1.x264-NTG 2.26GB

[复制链接]
5350 99mp4 发表于 2019-3-13 19:05:48


◎译  名 我不在这儿 / Steve's Umbrella
◎片  名 I'm Not Here
◎年  代 2017
◎产  地 美国
◎类  别 剧情
◎语  言 英语
◎上映日期 2017-09-21(雨舞影展) / 2019-03-08(美国)
◎IMDb评分 6.3/10 from 120 users
◎IMDb链接 http://www.imdb.com/title/tt5657712
◎久久MP4整理 http://899mp4.com/
◎导  演 米歇尔·舒马赫 Michelle Schumacher
◎编  剧 米歇尔·舒马赫 Michelle Schumacher / Tony Cummings
◎主  演 塞巴斯蒂安·斯坦 Sebastian Stan
      J·K·西蒙斯 J.K. Simmons
      麦卡·梦露 Maika Monroe
      曼迪·摩尔 Mandy Moore
      马克思·格林菲尔德 Max Greenfield
      哈罗德·佩里诺 Harold Perrineau
      杰瑞米·马奎尔 Jeremy Maguire
      大卫·科恩查内 David Koechner
      Heather Mazur
      Tony Cummings



◎简  介  

  一个人被过去痛苦记忆折磨的男人,逐渐发现或许时间并不是他所认为的敌人。光阴似箭,史蒂夫再也无法逃避他过去的梦靥,没有什么能停下他脑海中的噪音。面对世界的分离崩析,史蒂夫希望能扭转命运。 他找寻着自己孑然一身的缘由,或许还有希望。

Video
ID : 1
Format : AVC
Format/Info : Advanced Video Codec
Format profile : [email protected]
Format settings : CABAC / 4 Ref Frames
Format settings, CABAC : Yes
Format settings, ReFrames : 4 frames
Codec ID : V_MPEG4/ISO/AVC
Duration : 1 h 16 min
Bit rate mode : Constant
Bit rate : 3 594 kb/s
Nominal bit rate : 6 000 kb/s
Width : 1 280 pixels
Height : 720 pixels
Display aspect ratio : 16:9
Frame rate mode : Constant
Frame rate : 23.976 (24000/1001) FPS
Color space : YUV
Chroma subsampling : 4:2:0
Bit depth : 8 bits
Scan type : Progressive
Bits/(Pixel*Frame) : 0.163
Stream size : 1.92 GiB (85%)
Default : Yes
Forced : No
Color range : Limited
Color primaries : BT.709
Transfer characteristics : BT.709
Matrix coefficients : BT.709
Audio
ID : 2
Format : E-AC-3
Format/Info : Enhanced AC-3
Commercial name : Dolby Digital Plus
Codec ID : A_EAC3
Duration : 1 h 16 min
Bit rate mode : Constant
Bit rate : 640 kb/s
Channel(s) : 6 channels
Channel layout : L R C LFE Ls Rs
Sampling rate : 48.0 kHz
Frame rate : 31.250 FPS (1536 SPF)
Compression mode : Lossy
Stream size : 349 MiB (15%)
Language : English
Service kind : Complete Main
Default : Yes
Forced : No
Text #1
ID : 3
Format : UTF-8
Codec ID : S_TEXT/UTF8
Codec ID/Info : UTF-8 Plain Text
Duration : 1 h 10 min
Bit rate : 28 b/s
Count of elements : 552
Stream size : 14.9 KiB (0%)
Language : English
Default : No
Forced : No
Text #2
ID : 4
Format : UTF-8
Codec ID : S_TEXT/UTF8
Codec ID/Info : UTF-8 Plain Text
Duration : 1 h 11 min
Bit rate : 34 b/s
Count of elements : 659
Stream size : 17.9 KiB (0%)
Title : SDH
Language : English
Default : No
Forced : No





下载地址:
我不在这儿 Im.Not.Here.2017.720p.AMZN.WEBRip.DDP5.1.x264-NTG 2.26GB
回复

使用道具 举报

您需要登录后才可以回帖 登录 | 立即注册

本版积分规则

快速回复 返回顶部 返回列表