找回密码
 立即注册
搜索

本文来自

影视资源

影视资源

订阅|关注 (40)

本站提供720p|1080p|4K 等超高清分辨率电影电视剧免费下载。

精选帖子

16万

主题

16万

帖子

50万

积分

网站编辑

Rank: 8Rank: 8

积分
506556

[超清电影] 人之欲 Human.Desire.1954.1080p.BluRay.REMUX.AVC.LPCM.2.0-FGT 23GB

[复制链接]
9000 99mp4 发表于 2019-3-13 19:05:57


◎译  名 人之欲
◎片  名 Human Desire
◎年  代 1954
◎产  地 美国
◎类  别 剧情 / 爱情 / 黑色电影
◎语  言 英语
◎上映日期 1954-08-05(美国)
◎IMDb评分 7.2/10 from 3303 users
◎IMDb链接 http://www.imdb.com/title/tt0047101
◎豆瓣评分 7.6/10 from 271 users
◎豆瓣链接 https://movie.douban.com/subject/1860438/
◎久久MP4整理 http://899mp4.com/
◎片  长 91分钟
◎导  演 弗里茨·朗 Fritz Lang
◎编  剧 Alfred Hayes / 左拉 émile Zola
◎主  演 格伦·福特 Glenn Ford
      格洛丽亚·格雷厄姆 Gloria Grahame
      布罗德里克·克劳福 Broderick Crawford
      埃德加·巴詹南 Edgar Buchanan
      Kathleen Case
      Peggy Maley
      Grandon Rhodes



◎简  介  

  从朝鲜战场退伍归来的火车司机Jeff爱上了同事Carl的妻子Vicky,却无意中卷入了一场火车命案。是真爱还是早有预谋的借刀杀人?最后时刻Jeff又将如何抉择?


Video
ID : 1
Format : AVC
Format/Info : Advanced Video Codec
Format profile : [email protected]
Format settings : CABAC / 3 Ref Frames
Format settings, CABAC : Yes
Format settings, ReFrames : 3 frames
Codec ID : V_MPEG4/ISO/AVC
Duration : 1 h 30 min
Bit rate mode : Variable
Bit rate : 35.4 Mb/s
Maximum bit rate : 38.0 Mb/s
Width : 1 920 pixels
Height : 1 080 pixels
Display aspect ratio : 16:9
Frame rate mode : Constant
Frame rate : 23.976 (24000/1001) FPS
Color space : YUV
Chroma subsampling : 4:2:0
Bit depth : 8 bits
Scan type : Progressive
Bits/(Pixel*Frame) : 0.712
Stream size : 22.5 GiB (94%)
Title : Human.Desire.1954.1080p.BluRay.REMUX.AVC.LPCM.2.0-FGT
Language : English
Default : No
Forced : No
Color range : Limited
Color primaries : BT.709
Transfer characteristics : BT.709
Matrix coefficients : BT.709
Audio
ID : 2
Format : PCM
Format settings : Little / Signed
Codec ID : A_PCM/INT/LIT
Duration : 1 h 30 min
Bit rate mode : Constant
Bit rate : 2 304 kb/s
Channel(s) : 2 channels
Sampling rate : 48.0 kHz
Frame rate : 30.000 FPS (1600 SPF)
Bit depth : 24 bits
Delay relative to video : 143 ms
Stream size : 1.46 GiB (6%)
Title : Human.Desire.1954.1080p.BluRay.REMUX.AVC.LPCM.2.0-FGT
Language : English
Default : Yes
Forced : No
Text
ID : 3
Format : PGS
Muxing mode : zlib
Codec ID : S_HDMV/PGS
Codec ID/Info : Picture based subtitle format used on BDs/HD-DVDs
Duration : 1 h 26 min
Bit rate : 44.3 kb/s
Count of elements : 2184
Stream size : 27.4 MiB (0%)
Title : English-PGS
Language : English
Default : Yes
Forced : No
Menu
00:00:00.000 : en:Chapter 00
00:00:00.876 : en:Chapter 01
00:11:42.577 : en:Chapter 02
00:24:39.644 : en:Chapter 03
00:35:41.889 : en:Chapter 04
00:50:32.279 : en:Chapter 05
01:05:03.733 : en:Chapter 06
01:20:41.253 : en:Chapter 07





下载地址:
人之欲 Human.Desire.1954.1080p.BluRay.REMUX.AVC.LPCM.2.0-FGT 23GB
回复

使用道具 举报

您需要登录后才可以回帖 登录 | 立即注册

本版积分规则

快速回复 返回顶部 返回列表