找回密码
 立即注册
搜索

本文来自

影视资源

影视资源

订阅|关注 (40)

本站提供720p|1080p|4K 等超高清分辨率电影电视剧免费下载。

精选帖子

16万

主题

16万

帖子

50万

积分

网站编辑

Rank: 8Rank: 8

积分
506571

[超清电影] 阿凡达 Avatar.2009.ED.1080p.BluRay.REMUX.AVC.DTS-HD.MA.5.1-FGT 39GB

[复制链接]
7080 99mp4 发表于 2019-3-13 19:06:07



◎译  名 阿凡达 / 化身 / 天神下凡(港) / 异次元战神 / 神之化身
◎片  名 Avatar
◎年  代 2009
◎产  地 美国 / 英国
◎类  别 动作 / 科幻 / 战争 / 冒险
◎语  言 英语 / 西班牙语
◎上映日期 2009-12-18(美国) / 2010-01-04(中国大陆)
◎IMDb评分 7.8/10 from 1030288 users
◎IMDb链接 http://www.imdb.com/title/tt0499549
◎豆瓣评分 8.7/10 from 716728 users
◎豆瓣链接 https://movie.douban.com/subject/1652587/
◎久久MP4整理 http://899mp4.com/
◎片  长 162分钟
◎导  演 詹姆斯·卡梅隆 James Cameron
◎编  剧 詹姆斯·卡梅隆 James Cameron
◎主  演 萨姆·沃辛顿 Sam Worthington
      佐伊·索尔达娜 Zoe Saldana
      西格妮·韦弗 Sigourney Weaver
      史蒂芬·朗 Stephen Lang
      米歇尔·罗德里格兹 Michelle Rodriguez
      吉奥瓦尼·瑞比西 Giovanni Ribisi
      乔·大卫·摩尔  Joel David Moore
      希·庞德 CCH Pounder
      韦斯·斯塔迪 Wes Studi
      拉兹·阿隆索 Laz Alonso
      迪利普·劳 Dileep Rao
      马特·杰拉德 Matt Gerald
      肖恩·安东尼·莫兰 Sean Anthony Moran


◎标  签 科幻 | 3D | 美国 | 震撼 | IMAX | 史诗 | 战争 | 动作

◎简  介  

  战斗中负伤而下身瘫痪的前海军战士杰克?萨利(萨姆?沃辛顿 Sam Worthington 饰)决定替死去的同胞哥哥来到潘多拉星操纵格蕾丝博士(西格妮?韦弗 Sigourney Weaver 饰)用人类基因与当地纳美部族基因结合创造出的 “阿凡达” 混血生物。杰克的目的是打入纳美部落,外交说服他们自愿离开世代居住的家园,从而SecFor公司可砍伐殆尽该地区的原始森林,开采地下昂贵的“不可得”矿。在探索潘多拉星的过程中,杰克遇到了纳美部落的公主娜蒂瑞(佐伊?索尔达娜 Zoe Saldana 饰),向她学习了纳美人的生存技能与对待自然的态度。与此同时,SecFor公司的经理和军方代表上校迈尔斯(史蒂芬?朗 Stephen Lang 饰)逐渐丧失耐心,决定诉诸武力驱赶纳美人……
本片采用3D技术拍摄,共耗资5亿美元制作发行,是电影史上最为昂贵的作品。本片荣获第82届奥斯卡最佳摄影、最佳视觉效果、最佳艺术指导等3项大奖。

◎获奖情况  

  第82届奥斯卡金像奖(2010)
  最佳影片(提名) 詹姆斯·卡梅隆 / 乔恩·兰道
  最佳导演(提名) 詹姆斯·卡梅隆
  最佳摄影 摩洛·斐欧拉
  最佳剪辑(提名) 詹姆斯·卡梅隆 / Stephen E. Rivkin / John Refoua
  最佳视觉效果 斯蒂芬·罗森包姆 / 乔·莱特瑞 / Richard Baneham / Andrew R. Jones
  最佳混音(提名) 托尼·约翰逊 / 加里·萨默斯 / Andy Nelson / 克里斯托弗·博伊斯
  最佳音效剪辑(提名) Gwendolyn Yates Whittle / 克里斯托弗·博伊斯
  最佳艺术指导 Kim Sinclair / 瑞克·卡特 / 罗伯特·斯特罗姆伯格
  最佳原创配乐(提名) 詹姆斯·霍纳

  第67届威尼斯电影节(2010)
  3-D电影奖 年度最具创意立体电影 詹姆斯·卡梅隆

  第67届金球奖(2010)
  电影类 最佳剧情片
  电影类 最佳导演 詹姆斯·卡梅隆
  电影类 最佳原创配乐(提名) 詹姆斯·霍纳
  电影类 最佳原创歌曲(提名) Simon Franglen / 詹姆斯·霍纳 / Kuk Harrell

  第34届日本电影学院奖(2011)
  最佳外语片

  第19届MTV电影奖(2010)
  MTV电影奖 年度电影(提名)
  MTV电影奖 最佳女演员(提名) 佐伊·索尔达娜
  MTV电影奖 最佳吻戏(提名) 佐伊·索尔达娜 / 萨姆·沃辛顿
  MTV电影奖 最佳打斗(提名) 史蒂芬·朗 / 萨姆·沃辛顿
  MTV电影奖 最佳反派(提名) 史蒂芬·朗

  第14届中国电影华表奖(2011)
  优秀译制片奖

  第75届纽约影评人协会奖(2009)
  最佳摄影(提名) 摩洛·斐欧拉

  第14届圣地亚哥影评人协会奖(2009)
  最佳导演(提名) 詹姆斯·卡梅隆

  第22届芝加哥影评人协会奖(2009)
  最佳摄影(提名) 摩洛·斐欧拉
  最佳原创配乐(提名) 詹姆斯·霍纳

  第9届凤凰城影评人协会奖(2009)
  最佳摄影 摩洛·斐欧拉
  最佳剪辑 詹姆斯·卡梅隆 / Stephen E. Rivkin / John Refoua
  最佳艺术指导 罗伯特·斯特罗姆伯格 / 瑞克·卡特
  最佳视觉效果

  第35届报知映画赏(2010)
  海外作品奖 詹姆斯·卡梅隆

  第12届美国青少年选择奖(2010)
  最佳科幻电影
  最佳科幻电影男演员 萨姆·沃辛顿
  最佳科幻电影女演员 佐伊·索尔达娜
  最佳电影反派(提名) 史蒂芬·朗
  最佳电影打斗(提名) 史蒂芬·朗 / 萨姆·沃辛顿
  Choice Movie: Hissy Fit(提名) 吉奥瓦尼·瑞比西

Video
ID : 1
Format : AVC
Format/Info : Advanced Video Codec
Format profile : [email protected]
Format settings : CABAC / 2 Ref Frames
Format settings, CABAC : Yes
Format settings, ReFrames : 2 frames
Format settings, GOP : M=3, N=24
Codec ID : V_MPEG4/ISO/AVC
Duration : 2 h 58 min
Bit rate : 23.5 Mb/s
Width : 1 920 pixels
Height : 1 080 pixels
Display aspect ratio : 16:9
Frame rate mode : Constant
Frame rate : 23.976 (24000/1001) FPS
Color space : YUV
Chroma subsampling : 4:2:0
Bit depth : 8 bits
Scan type : Progressive
Bits/(Pixel*Frame) : 0.473
Stream size : 29.3 GiB (74%)
Title : Avatar.2009.EXTENDED.1080p.BluRay.REMUX.AVC.DTS-HD.MA.5.1-FGT
Language : English
Default : No
Forced : No
Audio #1
ID : 2
Format : DTS XLL
Format/Info : Digital Theater Systems
Commercial name : DTS-HD Master Audio
Codec ID : A_DTS
Duration : 2 h 58 min
Bit rate mode : Variable
Bit rate : 4 133 kb/s
Channel(s) : 6 channels
Channel layout : C L R Ls Rs LFE
Sampling rate : 48.0 kHz
Frame rate : 93.750 FPS (512 SPF)
Bit depth : 24 bits
Compression mode : Lossless
Stream size : 5.14 GiB (13%)
Title : Avatar.2009.EXTENDED.1080p.BluRay.REMUX.AVC.DTS-HD.MA.5.1-FGT
Language : English
Default : Yes
Forced : No
Audio #2
ID : 3
Format : DTS
Format/Info : Digital Theater Systems
Codec ID : A_DTS
Duration : 2 h 58 min
Bit rate mode : Constant
Bit rate : 1 509 kb/s
Channel(s) : 6 channels
Channel layout : C L R Ls Rs LFE
Sampling rate : 48.0 kHz
Frame rate : 93.750 FPS (512 SPF)
Bit depth : 24 bits
Compression mode : Lossy
Stream size : 1.88 GiB (5%)
Title : Avatar.2009.EXTENDED.1080p.BluRay.REMUX.AVC.DTS-HD.MA.5.1-FGT
Language : English
Default : No
Forced : No
Audio #3
ID : 4
Format : AC-3
Format/Info : Audio Coding 3
Commercial name : Dolby Digital
Codec ID : A_AC3
Duration : 2 h 58 min
Bit rate mode : Constant
Bit rate : 224 kb/s
Channel(s) : 2 channels
Channel layout : L R
Sampling rate : 48.0 kHz
Frame rate : 31.250 FPS (1536 SPF)
Bit depth : 16 bits
Compression mode : Lossy
Stream size : 285 MiB (1%)
Title : Avatar.2009.EXTENDED.1080p.BluRay.REMUX.AVC.DTS-HD.MA.5.1-FGT
Language : English
Service kind : Complete Main
Default : No
Forced : No
Audio #4
ID : 5
Format : DTS
Format/Info : Digital Theater Systems
Codec ID : A_DTS
Duration : 2 h 58 min
Bit rate mode : Constant
Bit rate : 768 kb/s
Channel(s) : 6 channels
Channel layout : C L R Ls Rs LFE
Sampling rate : 48.0 kHz
Frame rate : 93.750 FPS (512 SPF)
Bit depth : 24 bits
Compression mode : Lossy
Stream size : 979 MiB (2%)
Title : Avatar.2009.EXTENDED.1080p.BluRay.REMUX.AVC.DTS-HD.MA.5.1-FGT
Language : French
Default : No
Forced : No
Audio #5
ID : 6
Format : DTS
Format/Info : Digital Theater Systems
Codec ID : A_DTS
Duration : 2 h 58 min
Bit rate mode : Constant
Bit rate : 768 kb/s
Channel(s) : 6 channels
Channel layout : C L R Ls Rs LFE
Sampling rate : 48.0 kHz
Frame rate : 93.750 FPS (512 SPF)
Bit depth : 24 bits
Compression mode : Lossy
Stream size : 979 MiB (2%)
Title : Avatar.2009.EXTENDED.1080p.BluRay.REMUX.AVC.DTS-HD.MA.5.1-FGT
Language : German
Default : No
Forced : No
Audio #6
ID : 7
Format : DTS
Format/Info : Digital Theater Systems
Codec ID : A_DTS
Duration : 2 h 58 min
Bit rate mode : Constant
Bit rate : 768 kb/s
Channel(s) : 6 channels
Channel layout : C L R Ls Rs LFE
Sampling rate : 48.0 kHz
Frame rate : 93.750 FPS (512 SPF)
Bit depth : 24 bits
Compression mode : Lossy
Stream size : 979 MiB (2%)
Title : Avatar.2009.EXTENDED.1080p.BluRay.REMUX.AVC.DTS-HD.MA.5.1-FGT
Language : Spanish
Default : No
Forced : No
Text #1
ID : 8
Format : PGS
Muxing mode : zlib
Codec ID : S_HDMV/PGS
Codec ID/Info : Picture based subtitle format used on BDs/HD-DVDs
Duration : 2 h 57 min
Bit rate : 24.7 kb/s
Count of elements : 2801
Stream size : 31.3 MiB (0%)
Title : English-PGS
Language : English
Default : Yes
Forced : No
Text #2
ID : 9
Format : PGS
Muxing mode : zlib
Codec ID : S_HDMV/PGS
Codec ID/Info : Picture based subtitle format used on BDs/HD-DVDs
Duration : 2 h 43 min
Bit rate : 1 527 b/s
Count of elements : 153
Stream size : 1.78 MiB (0%)
Title : English-FORCED-PGS
Language : English
Default : No
Forced : No
Text #3
ID : 10
Format : PGS
Muxing mode : zlib
Codec ID : S_HDMV/PGS
Codec ID/Info : Picture based subtitle format used on BDs/HD-DVDs
Duration : 2 h 57 min
Bit rate : 20.0 kb/s
Count of elements : 2916
Stream size : 25.4 MiB (0%)
Title : French-PGS
Language : French
Default : No
Forced : No
Text #4
ID : 11
Format : PGS
Muxing mode : zlib
Codec ID : S_HDMV/PGS
Codec ID/Info : Picture based subtitle format used on BDs/HD-DVDs
Duration : 2 h 57 min
Bit rate : 23.0 kb/s
Count of elements : 2782
Stream size : 29.2 MiB (0%)
Title : Danish-PGS
Language : Danish
Default : No
Forced : No
Text #5
ID : 12
Format : PGS
Muxing mode : zlib
Codec ID : S_HDMV/PGS
Codec ID/Info : Picture based subtitle format used on BDs/HD-DVDs
Duration : 2 h 57 min
Bit rate : 21.8 kb/s
Count of elements : 2929
Stream size : 27.7 MiB (0%)
Title : Finnish-pgs
Language : Finnish
Default : No
Forced : No
Text #6
ID : 13
Format : PGS
Muxing mode : zlib
Codec ID : S_HDMV/PGS
Codec ID/Info : Picture based subtitle format used on BDs/HD-DVDs
Duration : 2 h 57 min
Bit rate : 26.8 kb/s
Count of elements : 2967
Stream size : 34.0 MiB (0%)
Title : German-PGS
Language : German
Default : No
Forced : No
Text #7
ID : 14
Format : PGS
Muxing mode : zlib
Codec ID : S_HDMV/PGS
Codec ID/Info : Picture based subtitle format used on BDs/HD-DVDs
Duration : 2 h 43 min
Bit rate : 1 681 b/s
Count of elements : 154
Stream size : 1.96 MiB (0%)
Title : German-FORCED-PGS
Language : German
Default : No
Forced : No
Text #8
ID : 15
Format : PGS
Muxing mode : zlib
Codec ID : S_HDMV/PGS
Codec ID/Info : Picture based subtitle format used on BDs/HD-DVDs
Duration : 2 h 57 min
Bit rate : 21.5 kb/s
Count of elements : 2947
Stream size : 27.3 MiB (0%)
Title : Dutch-PGS
Language : Dutch
Default : No
Forced : No
Text #9
ID : 16
Format : PGS
Muxing mode : zlib
Codec ID : S_HDMV/PGS
Codec ID/Info : Picture based subtitle format used on BDs/HD-DVDs
Duration : 2 h 57 min
Bit rate : 21.0 kb/s
Count of elements : 2952
Stream size : 26.6 MiB (0%)
Title : Norwegian-PGS
Language : Norwegian
Default : No
Forced : No
Text #10
ID : 17
Format : PGS
Muxing mode : zlib
Codec ID : S_HDMV/PGS
Codec ID/Info : Picture based subtitle format used on BDs/HD-DVDs
Duration : 2 h 57 min
Bit rate : 22.7 kb/s
Count of elements : 2901
Stream size : 28.7 MiB (0%)
Title : Spanish-PGS
Language : Spanish
Default : No
Forced : No
Text #11
ID : 18
Format : PGS
Muxing mode : zlib
Codec ID : S_HDMV/PGS
Codec ID/Info : Picture based subtitle format used on BDs/HD-DVDs
Duration : 2 h 43 min
Bit rate : 1 607 b/s
Count of elements : 158
Stream size : 1.87 MiB (0%)
Title : Spanish-FORCED-PGS
Language : Spanish
Default : No
Forced : No
Text #12
ID : 19
Format : PGS
Muxing mode : zlib
Codec ID : S_HDMV/PGS
Codec ID/Info : Picture based subtitle format used on BDs/HD-DVDs
Duration : 2 h 57 min
Bit rate : 22.3 kb/s
Count of elements : 2952
Stream size : 28.3 MiB (0%)
Title : Swedish-PGS
Language : Swedish
Default : No
Forced : No
Text #13
ID : 20
Format : PGS
Muxing mode : zlib
Codec ID : S_HDMV/PGS
Codec ID/Info : Picture based subtitle format used on BDs/HD-DVDs
Duration : 2 h 57 min
Bit rate : 23.4 kb/s
Count of elements : 2783
Stream size : 29.7 MiB (0%)
Title : Greek-PGS
Language : Greek
Default : No
Forced : No
Text #14
ID : 21
Format : PGS
Muxing mode : zlib
Codec ID : S_HDMV/PGS
Codec ID/Info : Picture based subtitle format used on BDs/HD-DVDs
Duration : 2 h 57 min
Bit rate : 25.2 kb/s
Count of elements : 2952
Stream size : 32.0 MiB (0%)
Title : Portuguese-PGS
Language : Portuguese
Default : No
Forced : No
Text #15
ID : 22
Format : PGS
Muxing mode : zlib
Codec ID : S_HDMV/PGS
Codec ID/Info : Picture based subtitle format used on BDs/HD-DVDs
Duration : 2 h 57 min
Bit rate : 22.2 kb/s
Count of elements : 2948
Stream size : 28.2 MiB (0%)
Title : Romanian_PGS
Language : Romanian
Default : No
Forced : No
Text #16
ID : 23
Format : PGS
Muxing mode : zlib
Codec ID : S_HDMV/PGS
Codec ID/Info : Picture based subtitle format used on BDs/HD-DVDs
Duration : 2 h 43 min
Bit rate : 1 548 b/s
Count of elements : 153
Stream size : 1.81 MiB (0%)
Title : French-FORCED-PGS
Language : French
Default : No
Forced : No
Menu
00:00:00.000 : en:Chapter 01
00:05:25.575 : en:Chapter 02
00:10:12.278 : en:Chapter 03
00:10:24.457 : en:Chapter 04
00:10:37.303 : en:Chapter 05
00:11:47.915 : en:Chapter 06
00:15:59.208 : en:Chapter 07
00:17:54.782 : en:Chapter 08
00:23:54.891 : en:Chapter 09
00:27:54.547 : en:Chapter 10
00:28:02.555 : en:Chapter 11
00:28:45.223 : en:Chapter 12
00:30:14.020 : en:Chapter 13
00:30:27.617 : en:Chapter 14
00:32:04.464 : en:Chapter 15
00:32:27.904 : en:Chapter 16
00:37:16.525 : en:Chapter 17
00:39:08.054 : en:Chapter 18
00:41:18.476 : en:Chapter 19
00:47:43.318 : en:Chapter 20
00:48:09.177 : en:Chapter 21
00:49:16.912 : en:Chapter 22
00:53:05.015 : en:Chapter 23
00:54:22.008 : en:Chapter 24
00:55:42.213 : en:Chapter 25
00:57:44.043 : en:Chapter 26
00:58:32.050 : en:Chapter 27
01:01:09.415 : en:Chapter 28
01:03:09.619 : en:Chapter 29
01:03:57.208 : en:Chapter 30
01:07:03.227 : en:Chapter 31
01:09:40.634 : en:Chapter 32
01:11:50.222 : en:Chapter 33
01:15:18.889 : en:Chapter 34
01:15:53.799 : en:Chapter 35
01:17:32.230 : en:Chapter 36
01:18:07.891 : en:Chapter 37
01:22:38.119 : en:Chapter 38
01:25:59.487 : en:Chapter 39
01:26:12.709 : en:Chapter 40
01:27:42.298 : en:Chapter 41
01:27:54.435 : en:Chapter 42
01:33:00.408 : en:Chapter 43
01:36:03.424 : en:Chapter 44
01:37:36.642 : en:Chapter 45
01:37:36.892 : en:Chapter 46
01:44:15.290 : en:Chapter 47
01:46:49.236 : en:Chapter 48
01:48:14.029 : en:Chapter 49
01:48:58.198 : en:Chapter 50
01:50:02.596 : en:Chapter 51
01:51:53.581 : en:Chapter 52
01:58:30.895 : en:Chapter 53
02:02:13.284 : en:Chapter 54
02:07:51.664 : en:Chapter 55
02:09:30.554 : en:Chapter 56
02:12:36.615 : en:Chapter 57
02:16:03.363 : en:Chapter 58
02:19:31.654 : en:Chapter 59
02:23:59.631 : en:Chapter 60
02:30:05.079 : en:Chapter 61
02:32:13.290 : en:Chapter 62
02:32:59.211 : en:Chapter 63
02:33:56.852 : en:Chapter 64
02:34:52.908 : en:Chapter 65
02:40:02.259 : en:Chapter 66
02:40:45.886 : en:Chapter 67
02:41:03.987 : en:Chapter 68
02:45:33.214 : en:Chapter 69
02:46:30.814 : en:Chapter 70
02:46:48.498 : en:Chapter 71
02:48:56.793 : en:Chapter 72
02:49:11.724 : en:Chapter 73
02:51:32.073 : en:Chapter 74
02:58:08.469 : en:Chapter 75





下载地址:
阿凡达 Avatar.2009.ED.1080p.BluRay.REMUX.AVC.DTS-HD.MA.5.1-FGT 39GB
回复

使用道具 举报

您需要登录后才可以回帖 登录 | 立即注册

本版积分规则

快速回复 返回顶部 返回列表