找回密码
 立即注册
搜索

本文来自

影视资源

影视资源

订阅|关注 (40)

本站提供720p|1080p|4K 等超高清分辨率电影电视剧免费下载。

精选帖子

16万

主题

16万

帖子

50万

积分

网站编辑

Rank: 8Rank: 8

积分
506571

[超清电影] 星球大战3:绝地归来 1983.1080p.BluRay.REMUX.AVC.DTS-FGT 37GB

[复制链接]
5090 99mp4 发表于 2019-3-13 19:06:23



◎译  名 星球大战3:绝地归来 / 星球大战第六集:武士复仇 / 星际大战六部曲:绝地大反攻 / 杰迪归来 / 绝地大反击
◎片  名 Star Wars: Episode VI - Return of the Jedi
◎年  代 1983
◎产  地 美国
◎类  别 动作 / 科幻 / 冒险
◎语  言 英语
◎上映日期 1983-05-25(美国)
◎IMDb评分 8.3/10 from 848494 users
◎IMDb链接 http://www.imdb.com/title/tt0086190
◎豆瓣评分 8.3/10 from 56409 users
◎豆瓣链接 https://movie.douban.com/subject/1297151/
◎久久MP4整理 http://899mp4.com/
◎片  长 131分钟
◎导  演 Richard Marquand
◎编  剧 George Lucas / Lawrence Kasdan
◎主  演 Mark Hamill
      Harrison Ford
      Anthony Daniels
      Carrie Fisher
      Billy Dee Williams
      Peter Mayhew
      Ian McDiarmid
      Frank Oz
      Alec Guinness


◎标  签 科幻 | 星球大战 | 美国 | 经典 | 1983 | 动作 | 冒险 | 战争

◎简  介  

  银河帝国再建威力更大的新“死星”,试图彻底消灭抵抗力量。卢克?天行者(马克?哈米尔 Mark Hamill 饰)派机器人R2-D2和C-3PO前往塔图因星贾霸处协商交换被冷冻的韩?索罗(哈里森?福特饰)未果;后在莉亚公主(卡里?费什尔 Carrie Fisher 饰),猿人丘巴卡(彼得?梅林 Peter Mayhew 饰)和蓝多?卡瑞辛(比利?迪?威廉姆斯 Billy Dee Williams 饰)的帮助下终于营救成功。在尤达师傅处,卢克发现了更多关于自己身世的秘密,也终于决定迎接成为一个绝地武士的终极挑战。卢克回到抵抗组织参与攻打“死星”行动,与韩?索罗,莉亚公主,丘巴卡,机器人R2-D2和C-3PO共同前往森林密布的恩多星破坏“死星”防护罩的能源站,与此同时蓝多?卡瑞辛驾驶千年隼飞船带领各部施展航空打击。没曾想卢克一行人刚踏上恩多星,就遭遇当地部落伊沃克人,莉亚公主也不知所踪……
本片获第56界奥斯卡视觉效果特殊贡献奖,并获最佳艺术指导-布景,最佳声音剪辑,最佳原创电影音乐及最佳音效四项提名。

◎获奖情况  

  第56届奥斯卡金像奖(1984)
  最佳音效剪辑(提名) 本·贝尔特
  最佳音响(提名) 兰迪·汤姆 / 加里·萨默斯 / Tony Dawe / 本·贝尔特
  最佳艺术指导(提名) 诺曼·雷诺兹 / 迈克尔·福特 / Fred Hole / James L. Schoppe
  最佳原创配乐(提名) 约翰·威廉姆斯
  特别成就奖 肯·拉斯顿 / 丹尼斯·穆伦 / 菲尔 蒂贝特 / 理查德·艾德兰德

Video
ID : 1
Format : AVC
Format/Info : Advanced Video Codec
Format profile : [email protected]
Format settings : CABAC / 4 Ref Frames
Format settings, CABAC : Yes
Format settings, ReFrames : 4 frames
Codec ID : V_MPEG4/ISO/AVC
Duration : 2 h 14 min
Bit rate mode : Variable
Bit rate : 30.5 Mb/s
Maximum bit rate : 36.8 Mb/s
Width : 1 920 pixels
Height : 1 080 pixels
Display aspect ratio : 16:9
Frame rate mode : Constant
Frame rate : 23.976 (24000/1001) FPS
Color space : YUV
Chroma subsampling : 4:2:0
Bit depth : 8 bits
Scan type : Progressive
Bits/(Pixel*Frame) : 0.613
Stream size : 28.7 GiB (76%)
Title : Star.Wars.Episode.VI.Return.of.The.Jedi.1983.1080p.BluRay.REMUX.AVC.DTS-HD.MA.6.1-FGT
Language : English
Default : No
Forced : No
Color range : Limited
Color primaries : BT.709
Transfer characteristics : BT.709
Matrix coefficients : BT.709
Audio #1
ID : 2
Format : DTS ES XXCH XLL
Format/Info : Digital Theater Systems
Commercial name : DTS-HD Master Audio
Codec ID : A_DTS
Duration : 2 h 14 min
Bit rate mode : Variable
Bit rate : 4 553 kb/s
Channel(s) : 7 channels
Channel layout : C L R Ls Rs LFE Cb
Sampling rate : 48.0 kHz
Frame rate : 93.750 FPS (512 SPF)
Bit depth : 24 bits
Compression mode : Lossless
Stream size : 4.29 GiB (11%)
Title : Star.Wars.Episode.VI.Return.of.The.Jedi.1983.1080p.BluRay.REMUX.AVC.DTS-HD.MA.6.1-FGT
Language : English
Default : Yes
Forced : No
Audio #2
ID : 3
Format : DTS ES XXCH
Format/Info : Digital Theater Systems
Commercial name : DTS-ES Discrete
Codec ID : A_DTS
Duration : 2 h 14 min
Bit rate mode : Constant
Bit rate : 1 509 kb/s
Channel(s) : 6 channels
Channel(s)_Original : 7 channels
Channel layout : C L R Ls Rs Cb LFE
Sampling rate : 48.0 kHz
Frame rate : 93.750 FPS (512 SPF)
Bit depth : 24 bits
Compression mode : Lossy
Stream size : 1.42 GiB (4%)
Title : Star.Wars.Episode.VI.Return.of.The.Jedi.1983.1080p.BluRay.REMUX.AVC.DTS-HD.MA.6.1-FGT
Language : English
Default : No
Forced : No
Audio #3
ID : 4
Format : AC-3
Format/Info : Audio Coding 3
Commercial name : Dolby Digital
Codec ID : A_AC3
Duration : 2 h 14 min
Bit rate mode : Constant
Bit rate : 448 kb/s
Channel(s) : 6 channels
Channel layout : L R C LFE Ls Rs
Sampling rate : 48.0 kHz
Frame rate : 31.250 FPS (1536 SPF)
Bit depth : 16 bits
Compression mode : Lossy
Stream size : 432 MiB (1%)
Title : Star.Wars.Episode.VI.Return.of.The.Jedi.1983.1080p.BluRay.REMUX.AVC.DTS-HD.MA.6.1-FGT
Language : English
Service kind : Complete Main
Default : No
Forced : No
Audio #4
ID : 5
Format : AC-3
Format/Info : Audio Coding 3
Commercial name : Dolby Digital
Codec ID : A_AC3
Duration : 2 h 14 min
Bit rate mode : Constant
Bit rate : 448 kb/s
Channel(s) : 6 channels
Channel layout : L R C LFE Ls Rs
Sampling rate : 48.0 kHz
Frame rate : 31.250 FPS (1536 SPF)
Bit depth : 16 bits
Compression mode : Lossy
Stream size : 432 MiB (1%)
Title : Star.Wars.Episode.VI.Return.of.The.Jedi.1983.1080p.BluRay.REMUX.AVC.DTS-HD.MA.6.1-FGT
Language : Spanish
Service kind : Complete Main
Default : No
Forced : No
Audio #5
ID : 6
Format : DTS
Format/Info : Digital Theater Systems
Codec ID : A_DTS
Duration : 2 h 14 min
Bit rate mode : Constant
Bit rate : 768 kb/s
Channel(s) : 6 channels
Channel layout : C L R Ls Rs LFE
Sampling rate : 48.0 kHz
Frame rate : 93.750 FPS (512 SPF)
Bit depth : 24 bits
Compression mode : Lossy
Stream size : 740 MiB (2%)
Title : Star.Wars.Episode.VI.Return.of.The.Jedi.1983.1080p.BluRay.REMUX.AVC.DTS-HD.MA.6.1-FGT
Language : French
Default : No
Forced : No
Audio #6
ID : 7
Format : AC-3
Format/Info : Audio Coding 3
Commercial name : Dolby Digital
Codec ID : A_AC3
Duration : 2 h 14 min
Bit rate mode : Constant
Bit rate : 448 kb/s
Channel(s) : 6 channels
Channel layout : L R C LFE Ls Rs
Sampling rate : 48.0 kHz
Frame rate : 31.250 FPS (1536 SPF)
Bit depth : 16 bits
Compression mode : Lossy
Stream size : 432 MiB (1%)
Title : Star.Wars.Episode.VI.Return.of.The.Jedi.1983.1080p.BluRay.REMUX.AVC.DTS-HD.MA.6.1-FGT
Language : Portuguese
Service kind : Complete Main
Default : No
Forced : No
Audio #7
ID : 8
Format : AC-3
Format/Info : Audio Coding 3
Commercial name : Dolby Digital
Codec ID : A_AC3
Duration : 2 h 14 min
Bit rate mode : Constant
Bit rate : 224 kb/s
Channel(s) : 2 channels
Channel layout : L R
Sampling rate : 48.0 kHz
Frame rate : 31.250 FPS (1536 SPF)
Bit depth : 16 bits
Compression mode : Lossy
Stream size : 216 MiB (1%)
Title : Star.Wars.Episode.VI.Return.of.The.Jedi.1983.1080p.BluRay.REMUX.AVC.DTS-HD.MA.6.1-FGT
Language : English
Service kind : Complete Main
Default : No
Forced : No
Audio #8
ID : 9
Format : AC-3
Format/Info : Audio Coding 3
Commercial name : Dolby Digital
Codec ID : A_AC3
Duration : 2 h 14 min
Bit rate mode : Constant
Bit rate : 224 kb/s
Channel(s) : 2 channels
Channel layout : L R
Sampling rate : 48.0 kHz
Frame rate : 31.250 FPS (1536 SPF)
Bit depth : 16 bits
Compression mode : Lossy
Stream size : 216 MiB (1%)
Title : Star.Wars.Episode.VI.Return.of.The.Jedi.1983.1080p.BluRay.REMUX.AVC.DTS-HD.MA.6.1-FGT
Language : English
Service kind : Complete Main
Default : No
Forced : No
Text #1
ID : 10
Format : PGS
Muxing mode : zlib
Codec ID : S_HDMV/PGS
Codec ID/Info : Picture based subtitle format used on BDs/HD-DVDs
Duration : 2 h 14 min
Bit rate : 36.5 kb/s
Count of elements : 3034
Stream size : 35.2 MiB (0%)
Title : English-PGS
Language : English
Default : Yes
Forced : No
Text #2
ID : 11
Format : PGS
Muxing mode : zlib
Codec ID : S_HDMV/PGS
Codec ID/Info : Picture based subtitle format used on BDs/HD-DVDs
Duration : 2 h 14 min
Bit rate : 28.0 kb/s
Count of elements : 1924
Stream size : 27.0 MiB (0%)
Title : Spanish-PGS
Language : Spanish
Default : No
Forced : No
Text #3
ID : 12
Format : PGS
Muxing mode : zlib
Codec ID : S_HDMV/PGS
Codec ID/Info : Picture based subtitle format used on BDs/HD-DVDs
Duration : 2 h 4 min
Bit rate : 857 b/s
Count of elements : 56
Stream size : 783 KiB (0%)
Title : Spanish-FORCED-PGS
Language : Spanish
Default : No
Forced : No
Text #4
ID : 13
Format : PGS
Muxing mode : zlib
Codec ID : S_HDMV/PGS
Codec ID/Info : Picture based subtitle format used on BDs/HD-DVDs
Duration : 2 h 14 min
Bit rate : 27.3 kb/s
Count of elements : 2014
Stream size : 26.3 MiB (0%)
Title : French-PGS
Language : French
Default : No
Forced : No
Text #5
ID : 14
Format : PGS
Muxing mode : zlib
Codec ID : S_HDMV/PGS
Codec ID/Info : Picture based subtitle format used on BDs/HD-DVDs
Duration : 2 h 4 min
Bit rate : 883 b/s
Count of elements : 58
Stream size : 807 KiB (0%)
Title : French-FORCED-PGS
Language : French
Default : No
Forced : No
Text #6
ID : 15
Format : PGS
Muxing mode : zlib
Codec ID : S_HDMV/PGS
Codec ID/Info : Picture based subtitle format used on BDs/HD-DVDs
Duration : 2 h 14 min
Bit rate : 26.4 kb/s
Count of elements : 1862
Stream size : 25.4 MiB (0%)
Title : Dutch-PGS
Language : Dutch
Default : No
Forced : No
Text #7
ID : 16
Format : PGS
Muxing mode : zlib
Codec ID : S_HDMV/PGS
Codec ID/Info : Picture based subtitle format used on BDs/HD-DVDs
Duration : 2 h 14 min
Bit rate : 28.8 kb/s
Count of elements : 2048
Stream size : 27.8 MiB (0%)
Title : Portuguese-PGS
Language : Portuguese
Default : No
Forced : No
Text #8
ID : 17
Format : PGS
Muxing mode : zlib
Codec ID : S_HDMV/PGS
Codec ID/Info : Picture based subtitle format used on BDs/HD-DVDs
Duration : 2 h 4 min
Bit rate : 881 b/s
Count of elements : 56
Stream size : 805 KiB (0%)
Title : Portuguese-FORCED-PGS
Language : Portuguese
Default : No
Forced : No
Text #9
ID : 18
Format : PGS
Muxing mode : zlib
Codec ID : S_HDMV/PGS
Codec ID/Info : Picture based subtitle format used on BDs/HD-DVDs
Duration : 2 h 14 min
Bit rate : 23.5 kb/s
Count of elements : 1630
Stream size : 22.7 MiB (0%)
Title : Finnish-PGS
Language : Finnish
Default : No
Forced : No
Text #10
ID : 19
Format : PGS
Muxing mode : zlib
Codec ID : S_HDMV/PGS
Codec ID/Info : Picture based subtitle format used on BDs/HD-DVDs
Duration : 2 h 14 min
Bit rate : 26.1 kb/s
Count of elements : 1892
Stream size : 25.2 MiB (0%)
Title : Swedish-PGS
Language : Swedish
Default : No
Forced : No
Text #11
ID : 20
Format : PGS
Muxing mode : zlib
Codec ID : S_HDMV/PGS
Codec ID/Info : Picture based subtitle format used on BDs/HD-DVDs
Duration : 2 h 14 min
Bit rate : 23.9 kb/s
Count of elements : 1908
Stream size : 23.0 MiB (0%)
Title : Norwegian-PGS
Language : Norwegian
Default : No
Forced : No
Text #12
ID : 21
Format : PGS
Muxing mode : zlib
Codec ID : S_HDMV/PGS
Codec ID/Info : Picture based subtitle format used on BDs/HD-DVDs
Duration : 2 h 14 min
Bit rate : 28.2 kb/s
Count of elements : 1904
Stream size : 27.2 MiB (0%)
Title : Danish-PGS
Language : Danish
Default : No
Forced : No
Text #13
ID : 22
Format : PGS
Muxing mode : zlib
Codec ID : S_HDMV/PGS
Codec ID/Info : Picture based subtitle format used on BDs/HD-DVDs
Duration : 2 h 14 min
Bit rate : 97.0 kb/s
Count of elements : 3584
Stream size : 93.4 MiB (0%)
Title : English-COMMENTARY-PGS
Language : English
Default : No
Forced : No
Text #14
ID : 23
Format : PGS
Muxing mode : zlib
Codec ID : S_HDMV/PGS
Codec ID/Info : Picture based subtitle format used on BDs/HD-DVDs
Duration : 2 h 14 min
Bit rate : 92.2 kb/s
Count of elements : 3714
Stream size : 88.7 MiB (0%)
Title : English-COMMENTARY-PGS
Language : English
Default : No
Forced : No
Text #15
ID : 24
Format : PGS
Muxing mode : zlib
Codec ID : S_HDMV/PGS
Codec ID/Info : Picture based subtitle format used on BDs/HD-DVDs
Duration : 2 h 14 min
Bit rate : 81.8 kb/s
Count of elements : 3804
Stream size : 78.8 MiB (0%)
Title : Spanish-COMMENTARY-PGS
Language : Spanish
Default : No
Forced : No
Text #16
ID : 25
Format : PGS
Muxing mode : zlib
Codec ID : S_HDMV/PGS
Codec ID/Info : Picture based subtitle format used on BDs/HD-DVDs
Duration : 2 h 14 min
Bit rate : 84.6 kb/s
Count of elements : 3710
Stream size : 81.4 MiB (0%)
Title : Spanish-COMMENTARY-PGS
Language : Spanish
Default : No
Forced : No
Text #17
ID : 26
Format : PGS
Muxing mode : zlib
Codec ID : S_HDMV/PGS
Codec ID/Info : Picture based subtitle format used on BDs/HD-DVDs
Duration : 2 h 14 min
Bit rate : 93.8 kb/s
Count of elements : 3894
Stream size : 90.3 MiB (0%)
Title : French-COMMENTARY-PGS
Language : French
Default : No
Forced : No
Text #18
ID : 27
Format : PGS
Muxing mode : zlib
Codec ID : S_HDMV/PGS
Codec ID/Info : Picture based subtitle format used on BDs/HD-DVDs
Duration : 2 h 14 min
Bit rate : 86.5 kb/s
Count of elements : 3712
Stream size : 83.2 MiB (0%)
Title : French-COMMENTARY-PGS
Language : French
Default : No
Forced : No
Text #19
ID : 28
Format : PGS
Muxing mode : zlib
Codec ID : S_HDMV/PGS
Codec ID/Info : Picture based subtitle format used on BDs/HD-DVDs
Duration : 2 h 14 min
Bit rate : 82.3 kb/s
Count of elements : 3884
Stream size : 79.2 MiB (0%)
Title : Dutch-COMMENTARY-PGS
Language : Dutch
Default : No
Forced : No
Text #20
ID : 29
Format : PGS
Muxing mode : zlib
Codec ID : S_HDMV/PGS
Codec ID/Info : Picture based subtitle format used on BDs/HD-DVDs
Duration : 2 h 14 min
Bit rate : 70.5 kb/s
Count of elements : 3710
Stream size : 67.9 MiB (0%)
Title : Dutch-COMMENTARY-PGS
Language : Dutch
Default : No
Forced : No
Text #21
ID : 30
Format : PGS
Muxing mode : zlib
Codec ID : S_HDMV/PGS
Codec ID/Info : Picture based subtitle format used on BDs/HD-DVDs
Duration : 2 h 14 min
Bit rate : 83.0 kb/s
Count of elements : 3874
Stream size : 80.0 MiB (0%)
Title : Portuguese-COMMENTARY-PGS
Language : Portuguese
Default : No
Forced : No
Text #22
ID : 31
Format : PGS
Muxing mode : zlib
Codec ID : S_HDMV/PGS
Codec ID/Info : Picture based subtitle format used on BDs/HD-DVDs
Duration : 2 h 14 min
Bit rate : 84.3 kb/s
Count of elements : 3710
Stream size : 81.2 MiB (0%)
Title : Portuguese-COMMENTARY-PGS
Language : Portuguese
Default : No
Forced : No
Text #23
ID : 32
Format : PGS
Muxing mode : zlib
Codec ID : S_HDMV/PGS
Codec ID/Info : Picture based subtitle format used on BDs/HD-DVDs
Duration : 2 h 14 min
Bit rate : 94.6 kb/s
Count of elements : 3874
Stream size : 91.1 MiB (0%)
Title : Finnish-COMMENTARY-PGS
Language : Finnish
Default : No
Forced : No
Text #24
ID : 33
Format : PGS
Muxing mode : zlib
Codec ID : S_HDMV/PGS
Codec ID/Info : Picture based subtitle format used on BDs/HD-DVDs
Duration : 2 h 14 min
Bit rate : 87.7 kb/s
Count of elements : 3708
Stream size : 84.4 MiB (0%)
Title : Finnish-COMMENTARY-PGS
Language : Finnish
Default : No
Forced : No
Text #25
ID : 34
Format : PGS
Muxing mode : zlib
Codec ID : S_HDMV/PGS
Codec ID/Info : Picture based subtitle format used on BDs/HD-DVDs
Duration : 2 h 14 min
Bit rate : 78.4 kb/s
Count of elements : 3876
Stream size : 75.5 MiB (0%)
Title : Swedish-COMMENTARY-PGS
Language : Swedish
Default : No
Forced : No
Text #26
ID : 35
Format : PGS
Muxing mode : zlib
Codec ID : S_HDMV/PGS
Codec ID/Info : Picture based subtitle format used on BDs/HD-DVDs
Duration : 2 h 14 min
Bit rate : 70.8 kb/s
Count of elements : 3712
Stream size : 68.1 MiB (0%)
Title : Swedish-COMMENTARY-PGS
Language : Swedish
Default : No
Forced : No
Text #27
ID : 36
Format : PGS
Muxing mode : zlib
Codec ID : S_HDMV/PGS
Codec ID/Info : Picture based subtitle format used on BDs/HD-DVDs
Duration : 2 h 14 min
Bit rate : 85.5 kb/s
Count of elements : 3876
Stream size : 82.4 MiB (0%)
Title : Norwegian-COMMENTARY-PGS
Language : Norwegian
Default : No
Forced : No
Text #28
ID : 37
Format : PGS
Muxing mode : zlib
Codec ID : S_HDMV/PGS
Codec ID/Info : Picture based subtitle format used on BDs/HD-DVDs
Duration : 2 h 14 min
Bit rate : 82.9 kb/s
Count of elements : 3672
Stream size : 79.8 MiB (0%)
Title : Norwegian-COMMENTARY-PGS
Language : Norwegian
Default : No
Forced : No
Text #29
ID : 38
Format : PGS
Muxing mode : zlib
Codec ID : S_HDMV/PGS
Codec ID/Info : Picture based subtitle format used on BDs/HD-DVDs
Duration : 2 h 14 min
Bit rate : 85.3 kb/s
Count of elements : 3874
Stream size : 82.2 MiB (0%)
Title : Danish-COMMENTARY-PGS
Language : Danish
Default : No
Forced : No
Text #30
ID : 39
Format : PGS
Muxing mode : zlib
Codec ID : S_HDMV/PGS
Codec ID/Info : Picture based subtitle format used on BDs/HD-DVDs
Duration : 2 h 14 min
Bit rate : 86.2 kb/s
Count of elements : 3708
Stream size : 83.0 MiB (0%)
Title : Danish-COMMENTARY-PGS
Language : Danish
Default : No
Forced : No
Text #31
ID : 40
Format : PGS
Muxing mode : zlib
Codec ID : S_HDMV/PGS
Codec ID/Info : Picture based subtitle format used on BDs/HD-DVDs
Duration : 2 h 14 min
Bit rate : 1 296 b/s
Count of elements : 250
Stream size : 1.25 MiB (0%)
Title : English-FORCED-PGS
Language : English
Default : No
Forced : No
Text #32
ID : 41
Format : PGS
Muxing mode : zlib
Codec ID : S_HDMV/PGS
Codec ID/Info : Picture based subtitle format used on BDs/HD-DVDs
Duration : 2 h 14 min
Bit rate : 1 296 b/s
Count of elements : 250
Stream size : 1.25 MiB (0%)
Title : English-FORCED-PGS
Language : English
Default : No
Forced : No
Text #33
ID : 42
Format : PGS
Muxing mode : zlib
Codec ID : S_HDMV/PGS
Codec ID/Info : Picture based subtitle format used on BDs/HD-DVDs
Duration : 2 h 14 min
Bit rate : 2 004 b/s
Count of elements : 288
Stream size : 1.93 MiB (0%)
Title : English-FORCED-PGS
Language : English
Default : No
Forced : No
Text #34
ID : 43
Format : PGS
Muxing mode : zlib
Codec ID : S_HDMV/PGS
Codec ID/Info : Picture based subtitle format used on BDs/HD-DVDs
Duration : 2 h 14 min
Bit rate : 2 004 b/s
Count of elements : 288
Stream size : 1.93 MiB (0%)
Title : English-FORCED-PGS
Language : English
Default : No
Forced : No
Text #35
ID : 44
Format : PGS
Muxing mode : zlib
Codec ID : S_HDMV/PGS
Codec ID/Info : Picture based subtitle format used on BDs/HD-DVDs
Duration : 2 h 14 min
Bit rate : 363 b/s
Count of elements : 56
Stream size : 359 KiB (0%)
Title : English-FORCED-PGS
Language : English
Default : No
Forced : No
Text #36
ID : 45
Format : PGS
Muxing mode : zlib
Codec ID : S_HDMV/PGS
Codec ID/Info : Picture based subtitle format used on BDs/HD-DVDs
Duration : 2 h 4 min
Bit rate : 392 b/s
Count of elements : 54
Stream size : 359 KiB (0%)
Title : English-FORCED-PGS
Language : English
Default : No
Forced : No
Menu
00:00:00.000 : en:Chapter 01
00:00:21.187 : en:Chapter 02
00:01:55.115 : en:Chapter 03
00:04:58.464 : en:Chapter 04
00:08:10.907 : en:Chapter 05
00:12:21.907 : en:Chapter 06
00:14:22.027 : en:Chapter 07
00:17:36.013 : en:Chapter 08
00:22:10.037 : en:Chapter 09
00:25:08.340 : en:Chapter 10
00:29:37.358 : en:Chapter 11
00:31:29.012 : en:Chapter 12
00:37:44.470 : en:Chapter 13
00:39:32.244 : en:Chapter 14
00:45:17.423 : en:Chapter 15
00:48:23.400 : en:Chapter 16
00:51:36.009 : en:Chapter 17
00:53:32.667 : en:Chapter 18
00:54:25.095 : en:Chapter 19
00:56:55.245 : en:Chapter 20
00:58:43.811 : en:Chapter 21
01:02:41.716 : en:Chapter 22
01:06:19.266 : en:Chapter 23
01:07:47.480 : en:Chapter 24
01:12:01.108 : en:Chapter 25
01:15:52.673 : en:Chapter 26
01:18:14.815 : en:Chapter 27
01:22:30.403 : en:Chapter 28
01:26:06.870 : en:Chapter 29
01:26:52.081 : en:Chapter 30
01:27:50.890 : en:Chapter 31
01:30:04.524 : en:Chapter 32
01:33:19.135 : en:Chapter 33
01:36:41.420 : en:Chapter 34
01:40:25.185 : en:Chapter 35
01:42:23.178 : en:Chapter 36
01:44:27.803 : en:Chapter 37
01:45:26.945 : en:Chapter 38
01:48:42.432 : en:Chapter 39
01:50:40.634 : en:Chapter 40
01:51:37.107 : en:Chapter 41
01:54:37.120 : en:Chapter 42
01:55:07.859 : en:Chapter 43
01:55:57.492 : en:Chapter 44
01:57:40.178 : en:Chapter 45
01:59:34.167 : en:Chapter 46
02:01:58.853 : en:Chapter 47
02:04:50.566 : en:Chapter 48
02:05:27.436 : en:Chapter 49
02:07:56.043 : en:Chapter 50





下载地址:
星球大战3:绝地归来 1983.1080p.BluRay.REMUX.AVC.DTS-FGT 37GB
回复

使用道具 举报

您需要登录后才可以回帖 登录 | 立即注册

本版积分规则

快速回复 返回顶部 返回列表