找回密码
 立即注册
搜索
...

本文来自

影视资源

影视资源

订阅|关注 (38)

本站提供720p|1080p|4K 等超高清分辨率电影电视剧免费下载。

精选帖子

16万

主题

16万

帖子

50万

积分

网站编辑

Rank: 8Rank: 8

积分
501637

[超清电影] 星球大战 1977.1080p.BluRay.REMUX.AVC.DTS-FGT 36GB

[复制链接]
4270 99mp4 发表于 2019-3-13 19:06:44



◎译  名 星球大战 / Star Wars: Episode IV - A New Hope / 星球大战第四集:新希望 / 星际大战 / 星际大战四部曲:曙光乍现
◎片  名 Star Wars
◎年  代 1977
◎产  地 美国
◎类  别 动作 / 科幻 / 冒险
◎语  言 英语
◎上映日期 1977-05-25(美国)
◎IMDb评分 8.6/10 from 1105043 users
◎IMDb链接 http://www.imdb.com/title/tt0076759
◎豆瓣评分 8.4/10 from 80937 users
◎豆瓣链接 https://movie.douban.com/subject/1293838/
◎久久MP4整理 http://899mp4.com/
◎片  长 121分钟
◎导  演 乔治·卢卡斯 George Lucas
◎编  剧 乔治·卢卡斯 George Lucas
◎主  演 哈里森·福特 Harrison Ford
      马克·哈米尔 Mark Hamill
      凯丽·费雪 Carrie Fisher
      彼得·库欣 Peter Cushing
      亚利克·基尼斯 Alec Guinness
      彼特·梅靥 Peter Mayhew
      大卫·鲍罗斯 David Prowse
      詹姆斯·厄尔·琼斯 James Earl Jones


◎标  签 科幻 | 星球大战 | 美国 | 经典 | 1977 | 动作 | 冒险 | 战争

◎简  介  

  遥远星系发生叛乱,银河共和国被推翻,奥尔德兰星的莉亚公主(卡里?费什尔 Carrie Fisher 饰)领导抵抗组织对抗银河帝国,却不幸被银河帝国的维德勋爵(大卫?普劳斯 David Prowse 饰)所俘。机器人R2-D2携银河帝国新武器“死星”的结构图与同伴翻译机器人C-3PO逃至塔图因星,途中被加瓦人抓住卖给青年卢克?天行者(马克?哈米尔 Mark Hamill 饰)的叔父。在卢克的帮助下,众人阴错阳差找到了隐居的绝地武士欧比-旺?肯诺比(亚历克?吉尼斯 Alec Guinness 饰)。欧比-旺交给卢克绝地之道,并带卢克与两机器人到港口城市茅斯伊斯垒,雇佣走私者韩?索罗(哈里森?福特饰)的千年隼飞船前往奥尔德兰……
本片获第50界奥斯卡最佳艺术指导,最佳服装设计,最佳视觉效果,最佳剪辑,最佳原创音乐,最佳声效六项大奖及特殊贡献奖(本?伯特 Ben Burtt),并获最佳电影,最佳男配角(亚历克?吉尼斯),最佳导演(乔治?卢卡斯),最佳原创电影音乐四项提名。

◎获奖情况  

  第50届奥斯卡金像奖(1978)
  最佳影片(提名) 加里·库尔茨
  最佳导演(提名) 乔治·卢卡斯
  最佳男配角(提名) 亚历克·吉尼斯
  最佳原创剧本(提名) 乔治·卢卡斯
  最佳剪辑 赵汝钜 / 保罗·赫希 / Marcia Lucas
  最佳视觉效果 约翰·戴克斯特拉 / 理查德·艾德兰德 / John Stears / Robert Blalack / 格兰特·麦丘恩
  最佳音响 唐·麦克杜格尔 / Bob Minkler / Derek Ball / Ray West
  最佳艺术指导 诺曼·雷诺兹 / 罗杰·克里斯蒂安 / John Barry / 莱斯利·迪利
  最佳服装设计 John Mollo
  最佳原创配乐 约翰·威廉姆斯
  特别成就奖 本·贝尔特

  第3届报知映画赏(1978)
  海外作品奖 乔治·卢卡斯

Video
ID : 1
Format : AVC
Format/Info : Advanced Video Codec
Format profile : [email protected]
Format settings : CABAC / 4 Ref Frames
Format settings, CABAC : Yes
Format settings, ReFrames : 4 frames
Codec ID : V_MPEG4/ISO/AVC
Duration : 2 h 4 min
Bit rate mode : Variable
Bit rate : 33.2 Mb/s
Maximum bit rate : 36.8 Mb/s
Width : 1 920 pixels
Height : 1 080 pixels
Display aspect ratio : 16:9
Frame rate mode : Constant
Frame rate : 23.976 (24000/1001) FPS
Color space : YUV
Chroma subsampling : 4:2:0
Bit depth : 8 bits
Scan type : Progressive
Bits/(Pixel*Frame) : 0.668
Stream size : 28.9 GiB (79%)
Title : Star.Wars.Episode.IV.A.New.Hope.1977.1080p.BluRay.REMUX.AVC.DTS-HD.MA.6.1-FGT
Language : English
Default : No
Forced : No
Audio #1
ID : 2
Format : DTS ES XXCH XLL
Format/Info : Digital Theater Systems
Commercial name : DTS-HD Master Audio
Codec ID : A_DTS
Duration : 2 h 4 min
Bit rate mode : Variable
Bit rate : 4 069 kb/s
Channel(s) : 7 channels
Channel layout : C L R Ls Rs LFE Cb
Sampling rate : 48.0 kHz
Frame rate : 93.750 FPS (512 SPF)
Bit depth : 24 bits
Compression mode : Lossless
Stream size : 3.55 GiB (10%)
Title : Star.Wars.Episode.IV.A.New.Hope.1977.1080p.BluRay.REMUX.AVC.DTS-HD.MA.6.1-FGT
Language : English
Default : Yes
Forced : No
Audio #2
ID : 3
Format : DTS ES XXCH
Format/Info : Digital Theater Systems
Commercial name : DTS-ES Discrete
Codec ID : A_DTS
Duration : 2 h 4 min
Bit rate mode : Constant
Bit rate : 1 509 kb/s
Channel(s) : 6 channels
Channel(s)_Original : 7 channels
Channel layout : C L R Ls Rs Cb LFE
Sampling rate : 48.0 kHz
Frame rate : 93.750 FPS (512 SPF)
Bit depth : 24 bits
Compression mode : Lossy
Stream size : 1.31 GiB (4%)
Title : Star.Wars.Episode.IV.A.New.Hope.1977.1080p.BluRay.REMUX.AVC.DTS-HD.MA.6.1-FGT
Language : English
Default : No
Forced : No
Audio #3
ID : 4
Format : AC-3
Format/Info : Audio Coding 3
Commercial name : Dolby Digital
Codec ID : A_AC3
Duration : 2 h 4 min
Bit rate mode : Constant
Bit rate : 448 kb/s
Channel(s) : 6 channels
Channel layout : L R C LFE Ls Rs
Sampling rate : 48.0 kHz
Frame rate : 31.250 FPS (1536 SPF)
Bit depth : 16 bits
Compression mode : Lossy
Stream size : 400 MiB (1%)
Title : Star.Wars.Episode.IV.A.New.Hope.1977.1080p.BluRay.REMUX.AVC.DTS-HD.MA.6.1-FGT
Language : English
Service kind : Complete Main
Default : No
Forced : No
Audio #4
ID : 5
Format : AC-3
Format/Info : Audio Coding 3
Commercial name : Dolby Digital
Codec ID : A_AC3
Duration : 2 h 4 min
Bit rate mode : Constant
Bit rate : 448 kb/s
Channel(s) : 6 channels
Channel layout : L R C LFE Ls Rs
Sampling rate : 48.0 kHz
Frame rate : 31.250 FPS (1536 SPF)
Bit depth : 16 bits
Compression mode : Lossy
Stream size : 400 MiB (1%)
Title : Star.Wars.Episode.IV.A.New.Hope.1977.1080p.BluRay.REMUX.AVC.DTS-HD.MA.6.1-FGT
Language : Spanish
Service kind : Complete Main
Default : No
Forced : No
Audio #5
ID : 6
Format : DTS
Format/Info : Digital Theater Systems
Codec ID : A_DTS
Duration : 2 h 4 min
Bit rate mode : Constant
Bit rate : 768 kb/s
Channel(s) : 6 channels
Channel layout : C L R Ls Rs LFE
Sampling rate : 48.0 kHz
Frame rate : 93.750 FPS (512 SPF)
Bit depth : 24 bits
Compression mode : Lossy
Stream size : 685 MiB (2%)
Title : Star.Wars.Episode.IV.A.New.Hope.1977.1080p.BluRay.REMUX.AVC.DTS-HD.MA.6.1-FGT
Language : French
Default : No
Forced : No
Audio #6
ID : 7
Format : AC-3
Format/Info : Audio Coding 3
Commercial name : Dolby Digital
Codec ID : A_AC3
Duration : 2 h 4 min
Bit rate mode : Constant
Bit rate : 448 kb/s
Channel(s) : 6 channels
Channel layout : L R C LFE Ls Rs
Sampling rate : 48.0 kHz
Frame rate : 31.250 FPS (1536 SPF)
Bit depth : 16 bits
Compression mode : Lossy
Stream size : 400 MiB (1%)
Title : Star.Wars.Episode.IV.A.New.Hope.1977.1080p.BluRay.REMUX.AVC.DTS-HD.MA.6.1-FGT
Language : Portuguese
Service kind : Complete Main
Default : No
Forced : No
Audio #7
ID : 8
Format : AC-3
Format/Info : Audio Coding 3
Commercial name : Dolby Digital
Codec ID : A_AC3
Duration : 2 h 4 min
Bit rate mode : Constant
Bit rate : 224 kb/s
Channel(s) : 2 channels
Channel layout : L R
Sampling rate : 48.0 kHz
Frame rate : 31.250 FPS (1536 SPF)
Bit depth : 16 bits
Compression mode : Lossy
Stream size : 200 MiB (1%)
Title : Star.Wars.Episode.IV.A.New.Hope.1977.1080p.BluRay.REMUX.AVC.DTS-HD.MA.6.1-FGT
Language : English
Service kind : Complete Main
Default : No
Forced : No
Audio #8
ID : 9
Format : AC-3
Format/Info : Audio Coding 3
Commercial name : Dolby Digital
Codec ID : A_AC3
Duration : 2 h 4 min
Bit rate mode : Constant
Bit rate : 224 kb/s
Channel(s) : 2 channels
Channel layout : L R
Sampling rate : 48.0 kHz
Frame rate : 31.250 FPS (1536 SPF)
Bit depth : 16 bits
Compression mode : Lossy
Stream size : 200 MiB (1%)
Title : Star.Wars.Episode.IV.A.New.Hope.1977.1080p.BluRay.REMUX.AVC.DTS-HD.MA.6.1-FGT
Language : English
Service kind : Complete Main
Default : No
Forced : No
Text #1
ID : 10
Format : PGS
Muxing mode : zlib
Codec ID : S_HDMV/PGS
Codec ID/Info : Picture based subtitle format used on BDs/HD-DVDs
Duration : 2 h 4 min
Bit rate : 57.3 kb/s
Count of elements : 3452
Stream size : 51.1 MiB (0%)
Title : English-PGS
Language : English
Default : Yes
Forced : No
Text #2
ID : 11
Format : PGS
Muxing mode : zlib
Codec ID : S_HDMV/PGS
Codec ID/Info : Picture based subtitle format used on BDs/HD-DVDs
Duration : 2 h 4 min
Bit rate : 487 b/s
Count of elements : 60
Stream size : 445 KiB (0%)
Title : English-FORCED-PGS
Language : English
Default : No
Forced : No
Text #3
ID : 12
Format : PGS
Muxing mode : zlib
Codec ID : S_HDMV/PGS
Codec ID/Info : Picture based subtitle format used on BDs/HD-DVDs
Duration : 1 h 14 min
Bit rate : 812 b/s
Count of elements : 58
Stream size : 445 KiB (0%)
Title : English-FORCED-PGS
Language : English
Default : No
Forced : No
Text #4
ID : 13
Format : PGS
Muxing mode : zlib
Codec ID : S_HDMV/PGS
Codec ID/Info : Picture based subtitle format used on BDs/HD-DVDs
Duration : 2 h 4 min
Bit rate : 48.2 kb/s
Count of elements : 2610
Stream size : 43.0 MiB (0%)
Title : Spanish-PGS
Language : Spanish
Default : No
Forced : No
Text #5
ID : 14
Format : PGS
Muxing mode : zlib
Codec ID : S_HDMV/PGS
Codec ID/Info : Picture based subtitle format used on BDs/HD-DVDs
Duration : 1 h 14 min
Bit rate : 1 663 b/s
Count of elements : 62
Stream size : 911 KiB (0%)
Title : Spanish-FORCED-PGS
Language : Spanish
Default : No
Forced : No
Text #6
ID : 15
Format : PGS
Muxing mode : zlib
Codec ID : S_HDMV/PGS
Codec ID/Info : Picture based subtitle format used on BDs/HD-DVDs
Duration : 2 h 4 min
Bit rate : 44.7 kb/s
Count of elements : 2576
Stream size : 39.8 MiB (0%)
Title : French-PGS
Language : French
Default : No
Forced : No
Text #7
ID : 16
Format : PGS
Muxing mode : zlib
Codec ID : S_HDMV/PGS
Codec ID/Info : Picture based subtitle format used on BDs/HD-DVDs
Duration : 1 h 14 min
Bit rate : 1 707 b/s
Count of elements : 64
Stream size : 935 KiB (0%)
Title : French-FORCED-PGS
Language : French
Default : No
Forced : No
Text #8
ID : 17
Format : PGS
Muxing mode : zlib
Codec ID : S_HDMV/PGS
Codec ID/Info : Picture based subtitle format used on BDs/HD-DVDs
Duration : 2 h 4 min
Bit rate : 34.7 kb/s
Count of elements : 2366
Stream size : 30.8 MiB (0%)
Title : Dutch-PGS
Language : Dutch
Default : No
Forced : No
Text #9
ID : 18
Format : PGS
Muxing mode : zlib
Codec ID : S_HDMV/PGS
Codec ID/Info : Picture based subtitle format used on BDs/HD-DVDs
Duration : 2 h 4 min
Bit rate : 50.0 kb/s
Count of elements : 2628
Stream size : 44.6 MiB (0%)
Title : Portuguese-PGS
Language : Portuguese
Default : No
Forced : No
Text #10
ID : 19
Format : PGS
Muxing mode : zlib
Codec ID : S_HDMV/PGS
Codec ID/Info : Picture based subtitle format used on BDs/HD-DVDs
Duration : 1 h 14 min
Bit rate : 1 722 b/s
Count of elements : 62
Stream size : 943 KiB (0%)
Title : Portuguese-FORCED-PGS
Language : Portuguese
Default : No
Forced : No
Text #11
ID : 20
Format : PGS
Muxing mode : zlib
Codec ID : S_HDMV/PGS
Codec ID/Info : Picture based subtitle format used on BDs/HD-DVDs
Duration : 2 h 4 min
Bit rate : 37.4 kb/s
Count of elements : 2056
Stream size : 33.4 MiB (0%)
Title : Finnish-PGS
Language : Finnish
Default : No
Forced : No
Text #12
ID : 21
Format : PGS
Muxing mode : zlib
Codec ID : S_HDMV/PGS
Codec ID/Info : Picture based subtitle format used on BDs/HD-DVDs
Duration : 2 h 4 min
Bit rate : 36.5 kb/s
Count of elements : 2040
Stream size : 32.6 MiB (0%)
Title : Swedish-PGS
Language : Swedish
Default : No
Forced : No
Text #13
ID : 22
Format : PGS
Muxing mode : zlib
Codec ID : S_HDMV/PGS
Codec ID/Info : Picture based subtitle format used on BDs/HD-DVDs
Duration : 2 h 4 min
Bit rate : 33.5 kb/s
Count of elements : 2034
Stream size : 29.9 MiB (0%)
Title : Norwegian-PGS
Language : Norwegian
Default : No
Forced : No
Text #14
ID : 23
Format : PGS
Muxing mode : zlib
Codec ID : S_HDMV/PGS
Codec ID/Info : Picture based subtitle format used on BDs/HD-DVDs
Duration : 2 h 4 min
Bit rate : 38.3 kb/s
Count of elements : 2032
Stream size : 34.1 MiB (0%)
Title : Danish-PGS
Language : Danish
Default : No
Forced : No
Text #15
ID : 24
Format : PGS
Muxing mode : zlib
Codec ID : S_HDMV/PGS
Codec ID/Info : Picture based subtitle format used on BDs/HD-DVDs
Duration : 2 h 4 min
Bit rate : 98.4 kb/s
Count of elements : 3698
Stream size : 87.7 MiB (0%)
Title : English-COMMENTARY0PGS
Language : English
Default : No
Forced : No
Text #16
ID : 25
Format : PGS
Muxing mode : zlib
Codec ID : S_HDMV/PGS
Codec ID/Info : Picture based subtitle format used on BDs/HD-DVDs
Duration : 2 h 4 min
Bit rate : 101 kb/s
Count of elements : 3538
Stream size : 89.5 MiB (0%)
Title : English-COMMENTARY0PGS
Language : English
Default : No
Forced : No
Text #17
ID : 26
Format : PGS
Muxing mode : zlib
Codec ID : S_HDMV/PGS
Codec ID/Info : Picture based subtitle format used on BDs/HD-DVDs
Duration : 2 h 4 min
Bit rate : 85.1 kb/s
Count of elements : 3502
Stream size : 75.8 MiB (0%)
Title : Spanish-COMMENTARY-PGS
Language : Spanish
Default : No
Forced : No
Text #18
ID : 27
Format : PGS
Muxing mode : zlib
Codec ID : S_HDMV/PGS
Codec ID/Info : Picture based subtitle format used on BDs/HD-DVDs
Duration : 2 h 4 min
Bit rate : 97.1 kb/s
Count of elements : 3524
Stream size : 86.5 MiB (0%)
Title : Spanish-COMMENTARY-PGS
Language : Spanish
Default : No
Forced : No
Text #19
ID : 28
Format : PGS
Muxing mode : zlib
Codec ID : S_HDMV/PGS
Codec ID/Info : Picture based subtitle format used on BDs/HD-DVDs
Duration : 2 h 4 min
Bit rate : 88.3 kb/s
Count of elements : 3524
Stream size : 78.7 MiB (0%)
Title : French-COMMENTARY-PGS
Language : French
Default : No
Forced : No
Text #20
ID : 29
Format : PGS
Muxing mode : zlib
Codec ID : S_HDMV/PGS
Codec ID/Info : Picture based subtitle format used on BDs/HD-DVDs
Duration : 2 h 4 min
Bit rate : 88.8 kb/s
Count of elements : 3526
Stream size : 79.0 MiB (0%)
Title : French-COMMENTARY-PGS
Language : French
Default : No
Forced : No
Text #21
ID : 30
Format : PGS
Muxing mode : zlib
Codec ID : S_HDMV/PGS
Codec ID/Info : Picture based subtitle format used on BDs/HD-DVDs
Duration : 2 h 4 min
Bit rate : 76.5 kb/s
Count of elements : 3516
Stream size : 68.2 MiB (0%)
Title : Dutch-COMMENTARY-PGS
Language : Dutch
Default : No
Forced : No
Text #22
ID : 31
Format : PGS
Muxing mode : zlib
Codec ID : S_HDMV/PGS
Codec ID/Info : Picture based subtitle format used on BDs/HD-DVDs
Duration : 2 h 4 min
Bit rate : 76.9 kb/s
Count of elements : 3524
Stream size : 68.5 MiB (0%)
Title : Dutch-COMMENTARY-PGS
Language : Dutch
Default : No
Forced : No
Text #23
ID : 32
Format : PGS
Muxing mode : zlib
Codec ID : S_HDMV/PGS
Codec ID/Info : Picture based subtitle format used on BDs/HD-DVDs
Duration : 2 h 4 min
Bit rate : 82.8 kb/s
Count of elements : 3524
Stream size : 73.8 MiB (0%)
Title : Portuguese-COMMENTARY-PGS
Language : Portuguese
Default : No
Forced : No
Text #24
ID : 33
Format : PGS
Muxing mode : zlib
Codec ID : S_HDMV/PGS
Codec ID/Info : Picture based subtitle format used on BDs/HD-DVDs
Duration : 2 h 4 min
Bit rate : 86.7 kb/s
Count of elements : 3524
Stream size : 77.2 MiB (0%)
Title : Portuguese-COMMENTARY-PGS
Language : Portuguese
Default : No
Forced : No
Text #25
ID : 34
Format : PGS
Muxing mode : zlib
Codec ID : S_HDMV/PGS
Codec ID/Info : Picture based subtitle format used on BDs/HD-DVDs
Duration : 2 h 4 min
Bit rate : 75.9 kb/s
Count of elements : 3514
Stream size : 67.6 MiB (0%)
Title : Finnish-COMMENTARY-PGS
Language : Finnish
Default : No
Forced : No
Text #26
ID : 35
Format : PGS
Muxing mode : zlib
Codec ID : S_HDMV/PGS
Codec ID/Info : Picture based subtitle format used on BDs/HD-DVDs
Duration : 2 h 4 min
Bit rate : 84.2 kb/s
Count of elements : 3520
Stream size : 74.9 MiB (0%)
Title : Finnish-COMMENTARY-PGS
Language : Finnish
Default : No
Forced : No
Text #27
ID : 36
Format : PGS
Muxing mode : zlib
Codec ID : S_HDMV/PGS
Codec ID/Info : Picture based subtitle format used on BDs/HD-DVDs
Duration : 2 h 4 min
Bit rate : 82.1 kb/s
Count of elements : 3518
Stream size : 73.2 MiB (0%)
Title : Swedish-COMMENTARY-PGS
Language : Swedish
Default : No
Forced : No
Text #28
ID : 37
Format : PGS
Muxing mode : zlib
Codec ID : S_HDMV/PGS
Codec ID/Info : Picture based subtitle format used on BDs/HD-DVDs
Duration : 2 h 4 min
Bit rate : 74.2 kb/s
Count of elements : 3526
Stream size : 66.1 MiB (0%)
Title : Swedish-COMMENTARY-PGS
Language : Swedish
Default : No
Forced : No
Text #29
ID : 38
Format : PGS
Muxing mode : zlib
Codec ID : S_HDMV/PGS
Codec ID/Info : Picture based subtitle format used on BDs/HD-DVDs
Duration : 2 h 4 min
Bit rate : 81.8 kb/s
Count of elements : 3516
Stream size : 72.9 MiB (0%)
Title : Norwegian-COMMENTARY-PGS
Language : Norwegian
Default : No
Forced : No
Text #30
ID : 39
Format : PGS
Muxing mode : zlib
Codec ID : S_HDMV/PGS
Codec ID/Info : Picture based subtitle format used on BDs/HD-DVDs
Duration : 2 h 4 min
Bit rate : 82.4 kb/s
Count of elements : 3524
Stream size : 73.3 MiB (0%)
Title : Norwegian-COMMENTARY-PGS
Language : Norwegian
Default : No
Forced : No
Text #31
ID : 40
Format : PGS
Muxing mode : zlib
Codec ID : S_HDMV/PGS
Codec ID/Info : Picture based subtitle format used on BDs/HD-DVDs
Duration : 2 h 4 min
Bit rate : 87.3 kb/s
Count of elements : 3518
Stream size : 77.7 MiB (0%)
Title : Danish-COMMENTARY-PGS
Language : Danish
Default : No
Forced : No
Text #32
ID : 41
Format : PGS
Muxing mode : zlib
Codec ID : S_HDMV/PGS
Codec ID/Info : Picture based subtitle format used on BDs/HD-DVDs
Duration : 2 h 4 min
Bit rate : 89.0 kb/s
Count of elements : 3524
Stream size : 79.2 MiB (0%)
Title : Danish-COMMENTARY-PGS
Language : Danish
Default : No
Forced : No
Text #33
ID : 42
Format : PGS
Muxing mode : zlib
Codec ID : S_HDMV/PGS
Codec ID/Info : Picture based subtitle format used on BDs/HD-DVDs
Duration : 2 h 4 min
Bit rate : 1 229 b/s
Count of elements : 201
Stream size : 1.10 MiB (0%)
Title : English-FORCED-PGS
Language : English
Default : No
Forced : No
Text #34
ID : 43
Format : PGS
Muxing mode : zlib
Codec ID : S_HDMV/PGS
Codec ID/Info : Picture based subtitle format used on BDs/HD-DVDs
Duration : 2 h 4 min
Bit rate : 1 229 b/s
Count of elements : 201
Stream size : 1.10 MiB (0%)
Title : English-FORCED-PGS
Language : English
Default : No
Forced : No
Text #35
ID : 44
Format : PGS
Muxing mode : zlib
Codec ID : S_HDMV/PGS
Codec ID/Info : Picture based subtitle format used on BDs/HD-DVDs
Duration : 2 h 4 min
Bit rate : 2 236 b/s
Count of elements : 315
Stream size : 1.99 MiB (0%)
Title : English-FORCED-PGS
Language : English
Default : No
Forced : No
Text #36
ID : 45
Format : PGS
Muxing mode : zlib
Codec ID : S_HDMV/PGS
Codec ID/Info : Picture based subtitle format used on BDs/HD-DVDs
Duration : 2 h 4 min
Bit rate : 2 236 b/s
Count of elements : 315
Stream size : 1.99 MiB (0%)
Title : English-FORCED-PGS
Language : English
Default : No
Forced : No
Menu
00:00:00.000 : en:Chapter 01
00:00:21.021 : en:Chapter 02
00:01:53.238 : en:Chapter 03
00:04:52.792 : en:Chapter 04
00:07:28.281 : en:Chapter 05
00:08:54.867 : en:Chapter 06
00:11:21.389 : en:Chapter 07
00:15:40.230 : en:Chapter 08
00:19:40.179 : en:Chapter 09
00:23:33.203 : en:Chapter 10
00:25:32.614 : en:Chapter 11
00:27:45.497 : en:Chapter 12
00:29:12.709 : en:Chapter 13
00:32:34.077 : en:Chapter 14
00:34:53.007 : en:Chapter 15
00:36:54.212 : en:Chapter 16
00:39:05.634 : en:Chapter 17
00:41:42.291 : en:Chapter 18
00:42:31.507 : en:Chapter 19
00:44:51.730 : en:Chapter 20
00:47:52.619 : en:Chapter 21
00:49:57.995 : en:Chapter 22
00:51:13.695 : en:Chapter 23
00:52:40.740 : en:Chapter 24
00:54:12.332 : en:Chapter 25
00:56:59.916 : en:Chapter 26
00:59:13.925 : en:Chapter 27
01:03:10.828 : en:Chapter 28
01:06:16.472 : en:Chapter 29
01:08:21.972 : en:Chapter 30
01:12:32.389 : en:Chapter 31
01:14:12.656 : en:Chapter 32
01:17:13.712 : en:Chapter 33
01:19:09.327 : en:Chapter 34
01:21:29.384 : en:Chapter 35
01:25:00.220 : en:Chapter 36
01:27:02.091 : en:Chapter 37
01:29:56.182 : en:Chapter 38
01:33:48.247 : en:Chapter 39
01:36:39.877 : en:Chapter 40
01:38:06.755 : en:Chapter 41
01:39:37.513 : en:Chapter 42
01:41:24.995 : en:Chapter 43
01:42:37.401 : en:Chapter 44
01:45:02.629 : en:Chapter 45
01:49:42.784 : en:Chapter 46
01:55:18.912 : en:Chapter 47
01:57:47.393 : en:Chapter 48
01:58:28.518 : en:Chapter 49
02:00:14.498 : en:Chapter 50





下载地址:
星球大战 1977.1080p.BluRay.REMUX.AVC.DTS-FGT 36GB
回复

使用道具 举报

您需要登录后才可以回帖 登录 | 立即注册

本版积分规则

快速回复 返回顶部 返回列表