找回密码
 立即注册
搜索

本文来自

影视资源

影视资源

订阅|关注 (40)

本站提供720p|1080p|4K 等超高清分辨率电影电视剧免费下载。

精选帖子

16万

主题

16万

帖子

50万

积分

网站编辑

Rank: 8Rank: 8

积分
506571

[超清电影] 盗马贼 The.Horse.Thief.1986.1080p.BluRay.x264-SPECTACLE 7.65GB

[复制链接]
5400 99mp4 发表于 2019-3-13 20:03:41


◎译  名 The Horse Thief
◎片  名 盗马贼
◎年  代 1986
◎产  地 中国大陆
◎类  别 剧情
◎语  言 汉语普通话 / 藏语
◎上映日期 1986
◎IMDb评分 7.1/10 from 854 users
◎IMDb链接 http://www.imdb.com/title/tt0090907
◎豆瓣评分 7.2/10 from 2828 users
◎豆瓣链接 https://movie.douban.com/subject/1305085/
◎久久MP4整理 http://899mp4.com/
◎片  长 UK: 88 分钟
◎导  演 田壮壮 Zhuangzhuang Tian
◎编  剧 张锐 Rui Zhang
◎主  演 才项仁增 Rigzin Tseshang
      旦枝姬 Jiji Dan
      蒂巴 Daiba
      扎西 Drashi
      高哇 Gaoba
      加洋加木错 Jamco Jayang


◎标  签 田壮壮 | 西藏 | 中国电影 | 中国 | 大陆 | 宗教 | 1986 | 1980s

◎简  介  

  1923年,藏民罗尔布(才项增仁 饰)游弋在高原上,以盗马维生。为了自己的孩子扎西,罗尔布放神羊为其祈福。头人的父亲死去,老阿妈对头人一家的善良感佩,同时又担心罗尔布因盗窃不能魂归于天。罗尔布与同伙抢劫了政府送给寺院的礼物,并打算用赃物为扎西向寺院还愿。抢劫事发,愤怒的头人将罗尔布一家驱逐,从此,罗尔布和妻子卓玛(旦枝姬 饰)、扎西只得在草原上流浪。扎西的病情不见好转并逐渐恶化,罗尔布用圣水为扎西沐浴、虔诚的求佛爷保佑却终于不能挽留自己的孩子。不久卓玛再次怀孕了,罗尔布和卓玛磕头为扎西还愿,但苦难并没有离他们而去……

Video
ID : 1
Format : AVC
Format/Info : Advanced Video Codec
Format profile : [email protected]
Format settings : CABAC / 5 Ref Frames
Format settings, CABAC : Yes
Format settings, ReFrames : 5 frames
Codec ID : V_MPEG4/ISO/AVC
Duration : 1 h 26 min
Bit rate : 12.4 Mb/s
Width : 1 920 pixels
Height : 816 pixels
Display aspect ratio : 2.35:1
Frame rate mode : Constant
Frame rate : 24.000 FPS
Color space : YUV
Chroma subsampling : 4:2:0
Bit depth : 8 bits
Scan type : Progressive
Bits/(Pixel*Frame) : 0.330
Stream size : 7.48 GiB (98%)
Writing library : x264 core 157 r2935 545de2f
Encoding settings : cabac=1 / ref=5 / deblock=1:-3:-3 / analyse=0x3:0x133 / me=umh / subme=11 / psy=1 / psy_rd=1.00:0.00 / mixed_ref=1 / me_range=64 / chroma_me=1 / trellis=2 / 8x8dct=1 / cqm=0 / deadzone=21,11 / fast_pskip=0 / chroma_qp_offset=-2 / threads=9 / lookahead_threads=2 / sliced_threads=0 / nr=0 / decimate=1 / interlaced=0 / bluray_compat=0 / constrained_intra=0 / bframes=12 / b_pyramid=2 / b_adapt=2 / b_bias=0 / direct=3 / weightb=1 / open_gop=0 / weightp=2 / keyint=240 / keyint_min=23 / scenecut=40 / intra_refresh=0 / rc_lookahead=60 / rc=2pass / mbtree=0 / bitrate=12400 / ratetol=1.0 / qcomp=0.60 / qpmin=0 / qpmax=69 / qpstep=4 / cplxblur=20.0 / qblur=0.5 / vbv_maxrate=62500 / vbv_bufsize=78125 / nal_hrd=none / filler=0 / ip_ratio=1.40 / pb_ratio=1.30 / aq=1:0.70
Default : Yes
Forced : No
Audio
ID : 2
Format : FLAC
Format/Info : Free Lossless Audio Codec
Codec ID : A_FLAC
Duration : 1 h 26 min
Bit rate mode : Variable
Bit rate : 285 kb/s
Channel(s) : 1 channel
Channel layout : C
Sampling rate : 48.0 kHz
Frame rate : 11.719 FPS (4096 SPF)
Bit depth : 16 bits
Compression mode : Lossless
Stream size : 176 MiB (2%)
Writing library : libFLAC 1.2.1 (UTC 2007-09-17)
Language : Tibetan
Default : Yes
Forced : No
Text
ID : 3
Format : UTF-8
Codec ID : S_TEXT/UTF8
Codec ID/Info : UTF-8 Plain Text
Duration : 1 h 24 min
Bit rate : 9 b/s
Count of elements : 244
Stream size : 5.84 KiB (0%)
Language : English
Default : Yes
Forced : No
Menu
00:00:00.000 : :Chapter 01
00:06:30.208 : :Chapter 02
00:17:36.792 : :Chapter 03
00:24:34.125 : :Chapter 04
00:30:18.708 : :Chapter 05
00:36:56.792 : :Chapter 06
00:46:31.708 : :Chapter 07
00:53:38.083 : :Chapter 08
01:02:08.167 : :Chapter 09
01:10:04.000 : :Chapter 10
01:16:40.458 : :Chapter 11
01:23:46.500 : :Chapter 12





下载地址:
盗马贼 The.Horse.Thief.1986.1080p.BluRay.x264-SPECTACLE 7.65GB
回复

使用道具 举报

您需要登录后才可以回帖 登录 | 立即注册

本版积分规则

快速回复 返回顶部 返回列表