[2022] [欧美] [科幻] [x265-4K-HDR] 未来罪行 Crimes.of.the.Future.2022.2160p.UHD.BluRay.x265.10bit.HDR.DDP5.1-RARBG 6.52 GB

uump4 2月前

悠悠MP4_MP4电影下载_未来罪行 Crimes.of.the.Future.2022.2160p.UHD.BluRay.x265.10bit.HDR.DDP5.1-RARBG 6.52 GB

◎片  名 未来罪行 Crimes of the Future / 犯罪档案 / 后人类罪行(港) / 未来犯罪(台)
◎年  代 2022
◎产  地 加拿大 / 法国 / 希腊 / 英国
◎类  别 剧情 / 科幻 / 恐怖
◎语  言 英语
◎上映日期 2022-05-23(戛纳电影节) / 2022-05-25(法国)
◎IMDb评分  5.9/10 from 22459 users
◎IMDb链接  https://www.imdb.com/title/tt14549466/
◎豆瓣评分 6.2/10 from 14846 users
◎豆瓣链接 https://movie.douban.com/subject/35448536/
◎片  长 107分钟
◎导  演 大卫·柯南伯格 David Cronenberg
◎编  剧 大卫·柯南伯格 David Cronenberg
◎主  演 维果·莫腾森 Viggo Mortensen
       蕾雅·赛杜 Léa Seydoux
       克里斯汀·斯图尔特 Kristen Stewart
       斯科特·斯比德曼 Scott Speedman
       韦尔凯特·邦盖 Welket Bungué
       唐·麦凯勒 Don McKellar
       约戈斯·皮尔帕索珀罗斯 Yorgos Pirpassopoulos
       塔娜亚·比蒂 Tanaya Beatty
       娜迪亚·利茨 Nadia Litz
       莉希·科诺夫斯基 Lihi Kornowski
       丹尼斯·卡佩扎 Denise Capezza
       索佐斯·索蒂里斯 Sozos Sotiris
       埃菲·坎查 Ephie Kantza
       杰森·比特 Jason Bitter
       皮内洛皮·提斯丽卡 Pinelopi Tsilika
       桥格斯·卡拉米霍斯 Giorgos Karamihos

◎简  介

  该片深入探索不远的未来,人类正在学习适应其合成环境,这种进化使人类超越自然状态,开始变形,改变他们的生物构成。有些人欣然接受超人文主义的无限潜力,而另一些人则试图控制它。不管怎样,“加速进化综合症”正在迅速蔓延。                                    
      索尔·滕泽是一位深受喜爱的行为艺术家,他接受了加速进化综 合症,身体里长出了意想不到的新器官。滕泽和他的搭档卡普利斯一起将摘除这些器官的过程变成了一场奇观——在剧院里实时操作,让其忠实的拥护者们惊叹。但是在政府和奇怪的亚文化共同关注的情况下,滕泽被迫考虑什么将是他最令人震惊的表演。

◎获奖情况

  第75届戛纳电影节 (2022)
  主竞赛单元 金棕榈奖(提名)
  大卫·柯南伯格



Video
ID           : 1
Format       : HEVC
Format/Info      : High Efficiency Video Coding
Format profile       : Main 10@L5.1@Main
HDR format       : SMPTE ST 2086, HDR10 compatible
Codec ID         : V_MPEGH/ISO/HEVC
Duration         : 1 h 47 min
Bit rate         : 8 044 kb/s
Width        : 3 840 pixels
Height       : 2 076 pixels
Display aspect ratio     : 1.85:1
Frame rate mode      : Constant
Frame rate       : 24.000 FPS
Color space      : YUV
Chroma subsampling       : 4:2:0
Bit depth        : 10 bits
Bits/(Pixel*Frame)       : 0.042
Stream size      : 6.04 GiB (93%)
Writing library      : x265 3.5+rarbg-HDR-38-20255e6:[Linux][clang 16.0.0][64 bit] 10bit
Encoding settings        : cpuid=1111039 / frame-threads=6 / wpp / no-pmode / no-pme / no-psnr / no-ssim / log-level=2 / input-csp=1 / input-res=3840x2076 / interlace=0 / total-frames=0 / level-idc=51 / high-tier=1 / uhd-bd=0 / ref=4 / no-allow-non-conformance / repeat-headers / annexb / aud / no-eob / no-eos / no-hrd / info / hash=0 / no-temporal-layers / no-open-gop / min-keyint=1 / keyint=24 / gop-lookahead=0 / bframes=4 / b-adapt=2 / b-pyramid / bframe-bias=0 / rc-lookahead=25 / lookahead-slices=4 / scenecut=40 / no-hist-scenecut / radl=0 / no-splice / no-intra-refresh / ctu=64 / min-cu-size=8 / rect / no-amp / max-tu-size=32 / tu-inter-depth=1 / tu-intra-depth=1 / limit-tu=0 / rdoq-level=2 / dynamic-rd=0.00 / no-ssim-rd / signhide / no-tskip / nr-intra=0 / nr-inter=0 / no-constrained-intra / strong-intra-smoothing / max-merge=3 / limit-refs=3 / no-limit-modes / me=3 / subme=3 / merange=57 / temporal-mvp / no-frame-dup / no-hme / weightp / no-weightb / no-analyze-src-pics / deblock=0:0 / no-sao / no-sao-non-deblock / rd=4 / selective-sao=0 / no-early-skip / rskip / no-fast-intra / no-tskip-fast / no-cu-lossless / no-b-intra / no-splitrd-skip / rdpenalty=0 / psy-rd=2.00 / psy-rdoq=1.00 / no-rd-refine / no-lossless / cbqpoffs=0 / crqpoffs=0 / rc=abr / bitrate=8000 / qcomp=0.60 / qpstep=4 / stats-write=0 / stats-read=2 / cplxblur=20.0 / qblur=0.5 / ipratio=1.40 / pbratio=1.30 / aq-mode=1 / aq-strength=1.00 / cutree / zone-count=0 / no-strict-cbr / qg-size=32 / no-rc-grain / qpmax=69 / qpmin=0 / no-const-vbv / sar=1 / overscan=0 / videoformat=5 / range=0 / colorprim=9 / transfer=16 / colormatrix=9 / chromaloc=0 / display-window=0 / master-display=G(13250,34500)B(7500,3000)R(34000,16000)WP(15635,16450)L(10000000,1) / cll=1000,86 / min-luma=0 / max-luma=1023 / log2-max-poc-lsb=8 / vui-timing-info / vui-hrd-info / slices=1 / no-opt-qp-pps / no-opt-ref-list-length-pps / no-multi-pass-opt-rps / scenecut-bias=0.05 / hist-threshold=0.03 / no-opt-cu-delta-qp / no-aq-motion / hdr10 / hdr10-opt / no-dhdr10-opt / no-idr-recovery-sei / analysis-reuse-level=0 / analysis-save-reuse-level=0 / analysis-load-reuse-level=0 / scale-factor=0 / refine-intra=0 / refine-inter=0 / refine-mv=1 / refine-ctu-distortion=0 / no-limit-sao / ctu-info=0 / no-lowpass-dct / refine-analysis-type=0 / copy-pic=1 / max-ausize-factor=1.0 / no-dynamic-refine / no-single-sei / no-hevc-aq / no-svt / no-field / qp-adaptation-range=1.00 / scenecut-aware-qp=0conformance-window-offsets / right=0 / bottom=0 / decoder-max-rate=0 / no-vbv-live-multi-pass
Default          : Yes
Forced       : No
Color range      : Limited
Color primaries      : BT.2020
Transfer characteristics     : PQ
Matrix coefficients      : BT.2020 non-constant
Mastering display color primaries    : Display P3
Mastering display luminance      : min: 0.0001 cd/m2, max: 1000 cd/m2
Maximum Content Light Level      : 1000 cd/m2
Maximum Frame-Average Light Level    : 86 cd/m2

Audio
ID           : 2
Format       : E-AC-3
Format/Info      : Enhanced AC-3
Commercial name      : Dolby Digital Plus
Codec ID         : A_EAC3
Duration         : 1 h 47 min
Bit rate mode        : Constant
Bit rate         : 640 kb/s
Channel(s)       : 6 channels
Channel layout       : L R C LFE Ls Rs
Sampling rate        : 48.0 kHz
Frame rate       : 31.250 FPS (1536 SPF)
Compression mode     : Lossy
Stream size      : 492 MiB (7%)
Title        : English DDP 5.1
Language         : English
Service kind         : Complete Main
Default          : Yes
Forced       : No

Text #1
ID           : 3
Format       : UTF-8
Codec ID         : S_TEXT/UTF8
Codec ID/Info        : UTF-8 Plain Text
Duration         : 1 h 39 min
Bit rate         : 47 b/s
Frame rate       : 0.227 FPS
Count of elements        : 1362
Stream size      : 34.7 KiB (0%)
Title        : English SRT
Language         : English
Default          : Yes
Forced       : No

Text #2
ID           : 4
Format       : UTF-8
Codec ID         : S_TEXT/UTF8
Codec ID/Info        : UTF-8 Plain Text
Duration         : 1 h 41 min
Bit rate         : 56 b/s
Frame rate       : 0.291 FPS
Count of elements        : 1766
Stream size      : 41.5 KiB (0%)
Title        : English SDH SRT
Language         : English
Default          : No
Forced       : No

Menu
00:00:00.000         : en:Chapter 01
00:07:47.416         : en:Chapter 02
00:14:09.583         : en:Chapter 03
00:20:33.125         : en:Chapter 04
00:30:33.166         : en:Chapter 05
00:35:55.666         : en:Chapter 06
00:40:46.708         : en:Chapter 07
00:48:18.375         : en:Chapter 08
00:55:33.500         : en:Chapter 09
00:59:39.125         : en:Chapter 10
01:05:32.083         : en:Chapter 11
01:15:07.083         : en:Chapter 12
01:21:38.166         : en:Chapter 13
01:26:09.291         : en:Chapter 14
01:32:39.416         : en:Chapter 15
01:41:02.833         : en:Chapter 16



悠悠MP4_MP4电影下载_未来罪行 Crimes.of.the.Future.2022.2160p.UHD.BluRay.x265.10bit.HDR.DDP5.1-RARBG 6.52 GB
悠悠MP4_MP4电影下载_未来罪行 Crimes.of.the.Future.2022.2160p.UHD.BluRay.x265.10bit.HDR.DDP5.1-RARBG 6.52 GB
悠悠MP4_MP4电影下载_未来罪行 Crimes.of.the.Future.2022.2160p.UHD.BluRay.x265.10bit.HDR.DDP5.1-RARBG 6.52 GB

磁力链接

magnet:?xt=urn:btih:1cfc860aa52751b447b7bcbe5eed7c815e9abcd1

上传的附件:
最新回复 (0)
返回
本站所有资源均收集自互联网,没有提供影片资源存储, 也未参与录制、上传,若本站收录的资源无意侵犯了您的权益, 请联系邮箱:gogoimgs#gmail.com(#=@)