[2016] [欧美] [纪录] [x264-1080P] 来自宇宙的最新消息 Latest.News.from.the.Cosmos.2016.FRENCH.1080p.AMZN.WEBRip.DDP2.0.x264-KHEZU 4.66 GB

uump4 2月前

悠悠MP4_MP4电影下载_来自宇宙的最新消息 Latest.News.from.the.Cosmos.2016.FRENCH.1080p.AMZN.WEBRip.DDP2.0.x264-KHEZU 4.66 GB

◎片  名 来自宇宙的最新消息 Dernières nouvelles du cosmos / Last News From Cosmos
◎年  代 2016
◎产  地 法国
◎类  别 纪录片
◎语  言 法语
◎上映日期 2016-11-09(法国)
◎IMDb评分  6.8/10 from 67 users
◎IMDb链接  https://www.imdb.com/title/tt5786040/
◎豆瓣评分 7.7/10 from 78 users
◎豆瓣链接 https://movie.douban.com/subject/26811730/
◎片  长 85分钟
◎导  演 朱莉·波图赛利 Julie Bertuccelli
◎编  剧 
◎主  演 

◎简  介

  A bientôt 30 ans, Hélène a toujours l’air d’une adolescente. Elle est l'auteure de textes puissants à l’humour corrosif. Elle fait partie, comme elle le dit elle-même, d’un «lot mal calibré, ne rentrant nulle part». Visionnaire, sa poésie télépathe nous parle de son monde et du nôtre. Elle accompagne un metteur en scène qui adapte son œuvre au théâtre, elle dialogue avec un mathématicien... Pourtant Hélène ne peut pas parler ni tenir un stylo, elle n’a jamais appris à lire ni à écrire. C’est à ses 20 ans que sa mère découvre qu'elle peut communiquer en agençant des lettres plastifiées sur une feuille de papier. Un des nombreux mystères de celle qui se surnomme Babouillec…                                    
      "Après avoir installé sa caméra au sein d'un collectif dans La Cour de Babel (2014), Julie Bertuccelli la tourne résolument vers une figure singulière dans Dernières nouvelles du cosmos. Filmeuse discrète et patiente, forte d'un dispositif documentaire plus complexe qu'il n'y paraît, la réalisatrice parvient à révéler, sous la plus infime des créatures humaines, l'être d'exception. Un portrait aussi sensible que mystérieux." Ciné32                                    
      "A bientôt 30 ans, Hélène a toujours l’air d’une adolescente. Elle est l'auteure de textes puissants à l’humour corrosif. Elle fait partie, comme elle le dit elle-même, d’un «lot mal calibré, ne rentrant nulle part». Visionnaire, sa poésie télépathe nous parle de son monde et du nôtre. Elle accompagne un metteur en scène qui adapte son œuvre au théâtre, elle dialogue avec un mathématicien... Pourtant Hélène ne peut pas parler ni tenir un stylo, elle n’a jamais appris à lire ni à écrire. C’est à ses 20 ans que sa mère découvre qu'elle peut communiquer en agençant des lettres plastifiées sur une feuille de papier. Un des nombreux mystères de celle qui se surnomme Babouillec…" JB

◎获奖情况

  第42届法国凯撒电影奖 (2017)
  最佳纪录片(提名)



Video
ID           : 1
Format       : AVC
Format/Info      : Advanced Video Codec
Format profile       : High@L4
Format settings      : CABAC / 4 Ref Frames
Format settings, CABAC       : Yes
Format settings, Reference frames    : 4 frames
Codec ID         : V_MPEG4/ISO/AVC
Duration         : 1 h 24 min
Bit rate mode        : Constant
Bit rate         : 7 634 kb/s
Nominal bit rate     : 10 000 kb/s
Width        : 1 920 pixels
Height       : 1 040 pixels
Display aspect ratio     : 1.85:1
Original display aspect ratio    : 1.85:1
Frame rate mode      : Constant
Frame rate       : 25.000 FPS
Color space      : YUV
Chroma subsampling       : 4:2:0
Bit depth        : 8 bits
Scan type        : Progressive
Bits/(Pixel*Frame)       : 0.153
Stream size      : 4.53 GiB (97%)
Language         : French
Default          : Yes
Forced       : No
Color range      : Limited
Color primaries      : BT.709
Transfer characteristics     : BT.709
Matrix coefficients      : BT.709

Audio
ID           : 2
Format       : E-AC-3
Format/Info      : Enhanced AC-3
Commercial name      : Dolby Digital Plus
Codec ID         : A_EAC3
Duration         : 1 h 24 min
Bit rate mode        : Constant
Bit rate         : 224 kb/s
Channel(s)       : 2 channels
Channel layout       : L R
Sampling rate        : 48.0 kHz
Frame rate       : 31.250 FPS (1536 SPF)
Compression mode     : Lossy
Stream size      : 136 MiB (3%)
Language         : French
Service kind         : Complete Main
Default          : Yes
Forced       : No

Text #1
ID           : 3
Format       : UTF-8
Codec ID         : S_TEXT/UTF8
Codec ID/Info        : UTF-8 Plain Text
Duration         : 1 h 23 min
Bit rate         : 43 b/s
Frame rate       : 0.182 FPS
Count of elements        : 913
Stream size      : 26.6 KiB (0%)
Language         : English
Default          : No
Forced       : No

Text #2
ID           : 4
Format       : UTF-8
Codec ID         : S_TEXT/UTF8
Codec ID/Info        : UTF-8 Plain Text
Duration         : 1 h 23 min
Bit rate         : 49 b/s
Frame rate       : 0.182 FPS
Count of elements        : 906
Stream size      : 30.3 KiB (0%)
Language         : French
Default          : No
Forced       : No

Text #3
ID           : 5
Format       : UTF-8
Codec ID         : S_TEXT/UTF8
Codec ID/Info        : UTF-8 Plain Text
Duration         : 1 h 23 min
Bit rate         : 55 b/s
Frame rate       : 0.226 FPS
Count of elements        : 1141
Stream size      : 34.4 KiB (0%)
Title        : SDH
Language         : French
Default          : No
Forced       : No

Text #4
ID           : 6
Format       : UTF-8
Codec ID         : S_TEXT/UTF8
Codec ID/Info        : UTF-8 Plain Text
Duration         : 1 h 23 min
Bit rate         : 49 b/s
Frame rate       : 0.183 FPS
Count of elements        : 919
Stream size      : 30.1 KiB (0%)
Language         : German
Default          : No
Forced       : No

Text #5
ID           : 7
Format       : UTF-8
Codec ID         : S_TEXT/UTF8
Codec ID/Info        : UTF-8 Plain Text
Duration         : 1 h 23 min
Bit rate         : 44 b/s
Frame rate       : 0.182 FPS
Count of elements        : 916
Stream size      : 27.6 KiB (0%)
Language         : Spanish
Default          : No
Forced       : No

Menu
00:00:00.000         : :Chapter 01
00:07:39.280         : :Chapter 02
00:18:03.400         : :Chapter 03
00:27:02.120         : :Chapter 04
00:35:13.280         : :Chapter 05
00:42:47.280         : :Chapter 06
00:49:25.720         : :Chapter 07
00:57:30.840         : :Chapter 08
01:08:34.240         : :Chapter 09
01:18:08.360         : :Chapter 10
01:24:55.840         : :Chapter 11



悠悠MP4_MP4电影下载_来自宇宙的最新消息 Latest.News.from.the.Cosmos.2016.FRENCH.1080p.AMZN.WEBRip.DDP2.0.x264-KHEZU 4.66 GB
悠悠MP4_MP4电影下载_来自宇宙的最新消息 Latest.News.from.the.Cosmos.2016.FRENCH.1080p.AMZN.WEBRip.DDP2.0.x264-KHEZU 4.66 GB
悠悠MP4_MP4电影下载_来自宇宙的最新消息 Latest.News.from.the.Cosmos.2016.FRENCH.1080p.AMZN.WEBRip.DDP2.0.x264-KHEZU 4.66 GB

磁力链接

magnet:?xt=urn:btih:8f8935323823fbf9872d4df907a501698e97a31e

上传的附件:
最新回复 (0)
返回
本站所有资源均收集自互联网,没有提供影片资源存储, 也未参与录制、上传,若本站收录的资源无意侵犯了您的权益, 请联系邮箱:gogoimgs#gmail.com(#=@)