[2022] [欧美] [恐怖] [x265-4K] 毁灭 The.Razing.2022.2160p.WEB-DL.x265.10bit.SDR.DD5.1-SMURF 9.56 GB

uump4 2月前



◎片  名 毁灭 The Razing
◎年  代 2022
◎产  地 美国
◎类  别 剧情 / 恐怖
◎语  言 英语
◎上映日期 
◎IMDb评分 
◎IMDb链接  https://www.imdb.com/title/tt13815488/
◎豆瓣评分 /10 from 0 users
◎豆瓣链接 https://movie.douban.com/subject/35906267/
◎片  长 
◎导  演 
◎编  剧 
◎主  演 

◎简  介

  A group of estranged friends gather for a night of tradition. Unfortunately, the evening takes a deadly turn after old secrets and wounds resurface.



Video
ID        : 1
Format       : HEVC
Format/Info      : High Efficiency Video Coding
Format profile      : Main 10@L5@High
Codec ID       : V_MPEGH/ISO/HEVC
Duration       : 1 h 49 min
Bit rate       : 12.1 Mb/s
Width        : 3 836 pixels
Height       : 2 156 pixels
Display aspect ratio     : 16:9
Frame rate mode      : Constant
Frame rate       : 23.976 FPS
Color space      : YUV
Chroma subsampling     : 4:2:0
Bit depth       : 10 bits
Bits/(Pixel*Frame)     : 0.061
Stream size      : 9.27 GiB (97%)
Language       : English
Default       : Yes
Forced       : No
Color range      : Limited
Color primaries      : BT.709
Transfer characteristics    : BT.709
Matrix coefficients     : BT.709

Audio
ID        : 2
Format       : AC-3
Format/Info      : Audio Coding 3
Commercial name      : Dolby Digital
Codec ID       : A_AC3
Duration       : 1 h 49 min
Bit rate mode      : Constant
Bit rate       : 384 kb/s
Channel(s)       : 6 channels
Channel layout      : L R C LFE Ls Rs
Sampling rate      : 48.0 kHz
Frame rate       : 31.250 FPS (1536 SPF)
Compression mode     : Lossy
Stream size      : 300 MiB (3%)
Language       : English
Service kind      : Complete Main
Default       : Yes
Forced       : No

Text #1
ID        : 3
Format       : UTF-8
Codec ID       : S_TEXT/UTF8
Codec ID/Info      : UTF-8 Plain Text
Duration       : 1 h 48 min
Bit rate       : 42 b/s
Frame rate       : 0.171 FPS
Count of elements     : 1108
Stream size      : 33.4 KiB (0%)
Language       : English
Default       : No
Forced       : No

Text #2
ID        : 4
Format       : UTF-8
Codec ID       : S_TEXT/UTF8
Codec ID/Info      : UTF-8 Plain Text
Duration       : 1 h 48 min
Bit rate       : 48 b/s
Frame rate       : 0.196 FPS
Count of elements     : 1277
Stream size      : 38.6 KiB (0%)
Title        : SDH
Language       : English
Default       : No
Forced       : No

Menu
00:00:00.000      : en:Chapter 01
00:08:20.959      : en:Chapter 02
00:17:54.032      : en:Chapter 03
00:27:28.481      : en:Chapter 04
00:41:06.925      : en:Chapter 05
00:52:19.347      : en:Chapter 06
01:03:06.119      : en:Chapter 07
01:11:37.756      : en:Chapter 08
01:18:45.225      : en:Chapter 09
01:31:50.927      : en:Chapter 10
01:41:41.518      : en:Chapter 11


悠悠MP4_MP4电影下载_毁灭 The.Razing.2022.2160p.WEB-DL.x265.10bit.SDR.DD5.1-SMURF 9.56 GB
悠悠MP4_MP4电影下载_毁灭 The.Razing.2022.2160p.WEB-DL.x265.10bit.SDR.DD5.1-SMURF 9.56 GB
悠悠MP4_MP4电影下载_毁灭 The.Razing.2022.2160p.WEB-DL.x265.10bit.SDR.DD5.1-SMURF 9.56 GB

磁力链接

magnet:?xt=urn:btih:88da3402c0725a4ae091c1d22dac32aa1b92816d
上传的附件:
最新回复 (0)
返回
本站所有资源均收集自互联网,没有提供影片资源存储, 也未参与录制、上传,若本站收录的资源无意侵犯了您的权益, 请联系邮箱:gogoimgs#gmail.com(#=@)