[更早] [欧美] [惊悚] [x265-4K] 我知道你去年夏天干了什么 I.Know.What.You.Did.Last.Summer.1997.2160p.BluRay.x265.10bit.SDR.DTS-HD.MA.TrueHD.7.1.Atmos-SWTYBLZ 54.72 GB

uump4 2月前

悠悠MP4_MP4电影下载_我知道你去年夏天干了什么 I.Know.What.You.Did.Last.Summer.1997.2160p.BluRay.x265.10bit.SDR.DTS-HD.MA.TrueHD.7.1.Atmos-SWTYBLZ 54.72 GB

◎片  名 我知道你去年夏天干了什么 I Know What You Did Last Summer / 旧年暑假搞乜鬼(港) / 我知道你去年暑假干了什么? / 是谁搞的鬼 / 去年暑假搞乜鬼
◎年  代 1997
◎产  地 美国
◎类  别 悬疑 / 惊悚 / 恐怖
◎语  言 英语
◎上映日期 1997-10-17(美国)
◎IMDb评分  5.8/10 from 146469 users
◎IMDb链接  https://www.imdb.com/title/tt0119345/
◎豆瓣评分 6.3/10 from 17682 users
◎豆瓣链接 https://movie.douban.com/subject/1292779/
◎片  长 101分钟 / 99分钟(cutversion)
◎导  演 吉姆·格莱斯皮 Jim Gillespie
◎编  剧 路易斯·邓肯 Lois Duncan
       凯文·威廉姆森 Kevin Williamson
◎主  演 詹妮弗·洛芙·休伊特 Jennifer Love Hewitt
       莎拉·米歇尔·盖拉 Sarah Michelle Gellar
       瑞恩·菲利普 Ryan Phillippe
       小弗雷迪·普林兹 Freddie Prinze Jr.
       缪斯·沃森 Muse Watson
       布里吉特·威尔逊 Bridgette Wilson-Sampras
       安妮·海切 Anne Heche
       约翰尼·盖尔克奇 Johnny Galecki
       斯图尔特·格利尔 Stuart Greer
       黛博拉·霍巴尔 Deborah Hobar
       丹·奥尔布莱特 Dan Albright
       谢亚 布罗姆 Shea Broom
       帕蒂·达班维尔 Patti D'Arbanville
       大卫·F·马克斯韦尔 David F. Maxwell

◎简  介

  朱莉(詹妮弗•洛夫•休伊特 Jennifer Love Hewitt  )和其他三个中学生在毕业之际来到一个美丽的海滨城市, 开始了一次狂欢式的度假。怎料乐极生悲,四人在黑夜的公路上飚车撞死了一个路人。慌乱中他们决定把尸体抛入大海,并约定对此事守口如瓶。一个快乐的旅程以阴霾结束。                                    
      本以为一切都成为秘密。朱莉开始了她全新的大学生活。但是一封来信却打破了她的平静。里面赫然写着“我知道你去年夏天干了什么”,朱莉惊恐万分。果然,恐怖异样的事件开始发生在几个年轻人身上,他们推测凶手是谁,猜疑纷纷,然而血腥的结局早已在等待着他们……



Video
ID           : 1
Format       : HEVC
Format/Info      : High Efficiency Video Coding
Format profile       : Main 10@L5.1@High
Codec ID         : V_MPEGH/ISO/HEVC
Duration         : 1 h 40 min
Bit rate         : 66.4 Mb/s
Width        : 3 840 pixels
Height       : 1 606 pixels
Display aspect ratio     : 2.40:1
Frame rate mode      : Constant
Frame rate       : 23.976 (24000/1001) FPS
Color space      : YUV
Chroma subsampling       : 4:2:0
Bit depth        : 10 bits
Bits/(Pixel*Frame)       : 0.449
Stream size      : 46.8 GiB (86%)
Writing library      : x265 3.0+1-ed72af837053:[Windows][GCC 8.2.0][64 bit] 10bit
Encoding settings        : cpuid=1111039 / frame-threads=6 / numa-pools=40 / wpp / no-pmode / no-pme / no-psnr / no-ssim / log-level=2 / input-csp=1 / input-res=3840x1606 / interlace=0 / total-frames=145104 / level-idc=51 / high-tier=1 / uhd-bd=0 / ref=3 / no-allow-non-conformance / repeat-headers / annexb / aud / hrd / info / hash=0 / no-temporal-layers / no-open-gop / min-keyint=1 / keyint=24 / gop-lookahead=0 / bframes=4 / b-adapt=2 / b-pyramid / bframe-bias=0 / rc-lookahead=25 / lookahead-slices=4 / scenecut=40 / radl=0 / no-splice / no-intra-refresh / ctu=64 / min-cu-size=8 / no-rect / no-amp / max-tu-size=32 / tu-inter-depth=1 / tu-intra-depth=1 / limit-tu=0 / rdoq-level=0 / dynamic-rd=0.00 / no-ssim-rd / signhide / no-tskip / nr-intra=0 / nr-inter=0 / no-constrained-intra / strong-intra-smoothing / max-merge=2 / limit-refs=3 / no-limit-modes / me=1 / subme=2 / merange=57 / temporal-mvp / weightp / no-weightb / no-analyze-src-pics / deblock=0:0 / no-sao / no-sao-non-deblock / rd=3 / no-early-skip / rskip / no-fast-intra / no-tskip-fast / no-cu-lossless / no-b-intra / no-splitrd-skip / rdpenalty=0 / psy-rd=2.00 / psy-rdoq=0.00 / no-rd-refine / no-lossless / cbqpoffs=0 / crqpoffs=0 / rc=crf / crf=17.0 / qcomp=0.60 / qpstep=4 / stats-write=0 / stats-read=0 / vbv-maxrate=160000 / vbv-bufsize=160000 / vbv-init=0.9 / crf-max=0.0 / crf-min=0.0 / ipratio=1.40 / pbratio=1.30 / aq-mode=1 / aq-strength=1.00 / cutree / zone-count=0 / no-strict-cbr / qg-size=32 / no-rc-grain / qpmax=69 / qpmin=0 / no-const-vbv / sar=1 / overscan=0 / videoformat=5 / range=0 / colorprim=2 / transfer=2 / colormatrix=2 / chromaloc=0 / display-window=0 / max-cll=0,0 / min-luma=0 / max-luma=1023 / log2-max-poc-lsb=8 / vui-timing-info / vui-hrd-info / slices=1 / opt-qp-pps / opt-ref-list-length-pps / no-multi-pass-opt-rps / scenecut-bias=0.05 / no-opt-cu-delta-qp / no-aq-motion / no-hdr / no-hdr-opt / no-dhdr10-opt / no-idr-recovery-sei / analysis-reuse-level=5 / scale-factor=0 / refine-intra=0 / refine-inter=0 / refine-mv=0 / refine-ctu-distortion=0 / no-limit-sao / ctu-info=0 / no-lowpass-dct / refine-analysis-type=0 / copy-pic=1 / max-ausize-factor=1.0 / no-dynamic-refine / no-single-sei / no-hevc-aq / qp-adaptation-range=1.00
Default          : Yes
Forced       : No

Audio #1
ID           : 2
ID in the original source medium     : 4352 (0x1100)
Format       : MLP FBA 16-ch
Format/Info      : Meridian Lossless Packing FBA with 16-channel presentation
Commercial name      : Dolby TrueHD with Dolby Atmos
Codec ID         : A_TRUEHD
Duration         : 1 h 40 min
Bit rate mode        : Variable
Bit rate         : 5 312 kb/s
Maximum bit rate     : 8 352 kb/s
Channel(s)       : 8 channels
Channel layout       : L R C LFE Ls Rs Lb Rb
Sampling rate        : 48.0 kHz
Frame rate       : 1 200.000 FPS (40 SPF)
Bit depth        : 24 bits
Compression mode     : Lossless
Stream size      : 3.74 GiB (7%)
Title        : TrueHD 7.1 Atmos
Language         : English
Default          : Yes
Forced       : No
Original source medium       : Blu-ray
Number of dynamic objects    : 11
Bed channel count        : 1 channel
Bed channel configuration    : LFE

Audio #2
ID           : 3
Format       : DTS XLL
Format/Info      : Digital Theater Systems
Commercial name      : DTS-HD Master Audio
Codec ID         : A_DTS
Duration         : 1 h 40 min
Bit rate mode        : Variable
Bit rate         : 4 693 kb/s
Channel(s)       : 8 channels
Channel layout       : C L R LFE Lb Rb Lss Rss
Sampling rate        : 48.0 kHz
Frame rate       : 93.750 FPS (512 SPF)
Bit depth        : 24 bits
Compression mode     : Lossless
Stream size      : 3.31 GiB (6%)
Title        : DTS-HD MA 7.1
Language         : English
Default          : No
Forced       : No

Audio #3
ID           : 4
ID in the original source medium     : 4352 (0x1100)
Format       : AC-3
Format/Info      : Audio Coding 3
Commercial name      : Dolby Digital
Codec ID         : A_AC3
Duration         : 1 h 40 min
Bit rate mode        : Constant
Bit rate         : 640 kb/s
Channel(s)       : 6 channels
Channel layout       : L R C LFE Ls Rs
Sampling rate        : 48.0 kHz
Frame rate       : 31.250 FPS (1536 SPF)
Compression mode     : Lossy
Stream size      : 462 MiB (1%)
Title        : DD 5.1
Language         : English
Service kind         : Complete Main
Default          : No
Forced       : No
Original source medium       : Blu-ray

Text #1
ID           : 5
Format       : UTF-8
Codec ID         : S_TEXT/UTF8
Codec ID/Info        : UTF-8 Plain Text
Duration         : 1 h 39 min
Bit rate         : 50 b/s
Frame rate       : 0.181 FPS
Count of elements        : 1078
Stream size      : 36.6 KiB (0%)
Language         : English
Default          : Yes
Forced       : No

Text #2
ID           : 6
Format       : UTF-8
Codec ID         : S_TEXT/UTF8
Codec ID/Info        : UTF-8 Plain Text
Duration         : 1 h 39 min
Bit rate         : 55 b/s
Frame rate       : 0.203 FPS
Count of elements        : 1218
Stream size      : 40.3 KiB (0%)
Title        : SDH
Language         : English
Default          : No
Forced       : No

Text #3
ID           : 7
ID in the original source medium     : 4768 (0x12A0)
Format       : PGS
Muxing mode      : zlib
Codec ID         : S_HDMV/PGS
Codec ID/Info        : Picture based subtitle format used on BDs/HD-DVDs
Duration         : 1 h 39 min
Bit rate         : 32.2 kb/s
Frame rate       : 0.418 FPS
Count of elements        : 2506
Stream size      : 23.0 MiB (0%)
Title        : SDH
Language         : English
Default          : No
Forced       : No
Original source medium       : Blu-ray

Text #4
ID           : 8
ID in the original source medium     : 4769 (0x12A1)
Format       : PGS
Muxing mode      : zlib
Codec ID         : S_HDMV/PGS
Codec ID/Info        : Picture based subtitle format used on BDs/HD-DVDs
Duration         : 1 h 31 min
Bit rate         : 25.6 kb/s
Frame rate       : 0.315 FPS
Count of elements        : 1724
Stream size      : 16.7 MiB (0%)
Language         : English
Default          : No
Forced       : No
Original source medium       : Blu-ray

Text #5
ID           : 9
ID in the original source medium     : 4770 (0x12A2)
Format       : PGS
Muxing mode      : zlib
Codec ID         : S_HDMV/PGS
Codec ID/Info        : Picture based subtitle format used on BDs/HD-DVDs
Duration         : 1 h 39 min
Bit rate         : 32.2 kb/s
Frame rate       : 0.418 FPS
Count of elements        : 2506
Stream size      : 23.0 MiB (0%)
Title        : SDH
Language         : English
Default          : No
Forced       : No
Original source medium       : Blu-ray

Text #6
ID           : 10
ID in the original source medium     : 4771 (0x12A3)
Format       : PGS
Muxing mode      : zlib
Codec ID         : S_HDMV/PGS
Codec ID/Info        : Picture based subtitle format used on BDs/HD-DVDs
Duration         : 1 h 31 min
Bit rate         : 25.6 kb/s
Frame rate       : 0.315 FPS
Count of elements        : 1724
Stream size      : 16.7 MiB (0%)
Language         : English
Default          : No
Forced       : No
Original source medium       : Blu-ray

Text #7
ID           : 11
ID in the original source medium     : 4772 (0x12A4)
Format       : PGS
Muxing mode      : zlib
Codec ID         : S_HDMV/PGS
Codec ID/Info        : Picture based subtitle format used on BDs/HD-DVDs
Duration         : 1 h 35 min
Bit rate         : 11.3 kb/s
Frame rate       : 0.205 FPS
Count of elements        : 1174
Stream size      : 7.74 MiB (0%)
Language         : Arabic
Default          : No
Forced       : No
Original source medium       : Blu-ray

Text #8
ID           : 12
ID in the original source medium     : 4773 (0x12A5)
Format       : PGS
Muxing mode      : zlib
Codec ID         : S_HDMV/PGS
Codec ID/Info        : Picture based subtitle format used on BDs/HD-DVDs
Duration         : 1 h 35 min
Bit rate         : 17.9 kb/s
Frame rate       : 0.218 FPS
Count of elements        : 1246
Stream size      : 12.2 MiB (0%)
Language         : Czech
Default          : No
Forced       : No
Original source medium       : Blu-ray

Text #9
ID           : 13
ID in the original source medium     : 4773 (0x12A5)
Format       : PGS
Muxing mode      : zlib
Codec ID         : S_HDMV/PGS
Codec ID/Info        : Picture based subtitle format used on BDs/HD-DVDs
Duration         : 1 h 34 min
Bit rate         : 203 b/s
Frame rate       : 0.004 FPS
Count of elements        : 20
Stream size      : 141 KiB (0%)
Language         : Czech
Default          : No
Forced       : No
Original source medium       : Blu-ray

Text #10
ID           : 14
ID in the original source medium     : 4774 (0x12A6)
Format       : PGS
Muxing mode      : zlib
Codec ID         : S_HDMV/PGS
Codec ID/Info        : Picture based subtitle format used on BDs/HD-DVDs
Duration         : 1 h 37 min
Bit rate         : 20.3 kb/s
Frame rate       : 0.237 FPS
Count of elements        : 1384
Stream size      : 14.2 MiB (0%)
Language         : Danish
Default          : No
Forced       : No
Original source medium       : Blu-ray

Text #11
ID           : 15
ID in the original source medium     : 4775 (0x12A7)
Format       : PGS
Muxing mode      : zlib
Codec ID         : S_HDMV/PGS
Codec ID/Info        : Picture based subtitle format used on BDs/HD-DVDs
Duration         : 1 h 32 min
Bit rate         : 20.6 kb/s
Frame rate       : 0.269 FPS
Count of elements        : 1484
Stream size      : 13.6 MiB (0%)
Language         : Dutch
Default          : No
Forced       : No
Original source medium       : Blu-ray

Text #12
ID           : 16
ID in the original source medium     : 4776 (0x12A8)
Format       : PGS
Muxing mode      : zlib
Codec ID         : S_HDMV/PGS
Codec ID/Info        : Picture based subtitle format used on BDs/HD-DVDs
Duration         : 1 h 35 min
Bit rate         : 20.3 kb/s
Frame rate       : 0.224 FPS
Count of elements        : 1284
Stream size      : 13.9 MiB (0%)
Language         : Finnish
Default          : No
Forced       : No
Original source medium       : Blu-ray

Text #13
ID           : 17
ID in the original source medium     : 4777 (0x12A9)
Format       : PGS
Muxing mode      : zlib
Codec ID         : S_HDMV/PGS
Codec ID/Info        : Picture based subtitle format used on BDs/HD-DVDs
Duration         : 1 h 35 min
Bit rate         : 17.5 kb/s
Frame rate       : 0.201 FPS
Count of elements        : 1152
Stream size      : 11.9 MiB (0%)
Language         : French
Default          : No
Forced       : No
Original source medium       : Blu-ray

Text #14
ID           : 18
ID in the original source medium     : 4777 (0x12A9)
Format       : PGS
Muxing mode      : zlib
Codec ID         : S_HDMV/PGS
Codec ID/Info        : Picture based subtitle format used on BDs/HD-DVDs
Duration         : 1 h 35 min
Bit rate         : 233 b/s
Frame rate       : 0.004 FPS
Count of elements        : 24
Stream size      : 163 KiB (0%)
Language         : French
Default          : No
Forced       : No
Original source medium       : Blu-ray

Text #15
ID           : 19
ID in the original source medium     : 4778 (0x12AA)
Format       : PGS
Muxing mode      : zlib
Codec ID         : S_HDMV/PGS
Codec ID/Info        : Picture based subtitle format used on BDs/HD-DVDs
Duration         : 1 h 35 min
Bit rate         : 23.4 kb/s
Frame rate       : 0.297 FPS
Count of elements        : 1700
Stream size      : 16.0 MiB (0%)
Language         : French
Default          : No
Forced       : No
Original source medium       : Blu-ray

Text #16
ID           : 20
ID in the original source medium     : 4779 (0x12AB)
Format       : PGS
Muxing mode      : zlib
Codec ID         : S_HDMV/PGS
Codec ID/Info        : Picture based subtitle format used on BDs/HD-DVDs
Duration         : 1 h 35 min
Bit rate         : 19.5 kb/s
Frame rate       : 0.204 FPS
Count of elements        : 1166
Stream size      : 13.3 MiB (0%)
Language         : German
Default          : No
Forced       : No
Original source medium       : Blu-ray

Text #17
ID           : 21
ID in the original source medium     : 4779 (0x12AB)
Format       : PGS
Muxing mode      : zlib
Codec ID         : S_HDMV/PGS
Codec ID/Info        : Picture based subtitle format used on BDs/HD-DVDs
Duration         : 1 h 35 min
Bit rate         : 269 b/s
Frame rate       : 0.004 FPS
Count of elements        : 22
Stream size      : 189 KiB (0%)
Language         : German
Default          : No
Forced       : No
Original source medium       : Blu-ray

Text #18
ID           : 22
ID in the original source medium     : 4780 (0x12AC)
Format       : PGS
Muxing mode      : zlib
Codec ID         : S_HDMV/PGS
Codec ID/Info        : Picture based subtitle format used on BDs/HD-DVDs
Duration         : 1 h 35 min
Bit rate         : 23.0 kb/s
Frame rate       : 0.294 FPS
Count of elements        : 1692
Stream size      : 15.8 MiB (0%)
Language         : Greek
Default          : No
Forced       : No
Original source medium       : Blu-ray

Text #19
ID           : 23
ID in the original source medium     : 4781 (0x12AD)
Format       : PGS
Muxing mode      : zlib
Codec ID         : S_HDMV/PGS
Codec ID/Info        : Picture based subtitle format used on BDs/HD-DVDs
Duration         : 1 h 35 min
Bit rate         : 20.0 kb/s
Frame rate       : 0.250 FPS
Count of elements        : 1432
Stream size      : 13.6 MiB (0%)
Language         : Hungarian
Default          : No
Forced       : No
Original source medium       : Blu-ray

Text #20
ID           : 24
ID in the original source medium     : 4781 (0x12AD)
Format       : PGS
Muxing mode      : zlib
Codec ID         : S_HDMV/PGS
Codec ID/Info        : Picture based subtitle format used on BDs/HD-DVDs
Duration         : 1 h 33 min
Bit rate         : 547 b/s
Frame rate       : 0.008 FPS
Count of elements        : 46
Stream size      : 373 KiB (0%)
Language         : Hungarian
Default          : No
Forced       : No
Original source medium       : Blu-ray

Text #21
ID           : 25
ID in the original source medium     : 4782 (0x12AE)
Format       : PGS
Muxing mode      : zlib
Codec ID         : S_HDMV/PGS
Codec ID/Info        : Picture based subtitle format used on BDs/HD-DVDs
Duration         : 1 h 37 min
Bit rate         : 20.0 kb/s
Frame rate       : 0.216 FPS
Count of elements        : 1264
Stream size      : 13.9 MiB (0%)
Language         : Icelandic
Default          : No
Forced       : No
Original source medium       : Blu-ray

Text #22
ID           : 26
ID in the original source medium     : 4783 (0x12AF)
Format       : PGS
Muxing mode      : zlib
Codec ID         : S_HDMV/PGS
Codec ID/Info        : Picture based subtitle format used on BDs/HD-DVDs
Duration         : 1 h 35 min
Bit rate         : 20.2 kb/s
Frame rate       : 0.234 FPS
Count of elements        : 1342
Stream size      : 13.8 MiB (0%)
Language         : Italian
Default          : No
Forced       : No
Original source medium       : Blu-ray

Text #23
ID           : 27
ID in the original source medium     : 4783 (0x12AF)
Format       : PGS
Muxing mode      : zlib
Codec ID         : S_HDMV/PGS
Codec ID/Info        : Picture based subtitle format used on BDs/HD-DVDs
Duration         : 1 h 31 min
Bit rate         : 171 b/s
Frame rate       : 0.003 FPS
Count of elements        : 18
Stream size      : 115 KiB (0%)
Language         : Italian
Default          : No
Forced       : No
Original source medium       : Blu-ray

Text #24
ID           : 28
ID in the original source medium     : 4784 (0x12B0)
Format       : PGS
Muxing mode      : zlib
Codec ID         : S_HDMV/PGS
Codec ID/Info        : Picture based subtitle format used on BDs/HD-DVDs
Duration         : 1 h 35 min
Bit rate         : 20.2 kb/s
Frame rate       : 0.322 FPS
Count of elements        : 1846
Stream size      : 13.8 MiB (0%)
Language         : Korean
Default          : No
Forced       : No
Original source medium       : Blu-ray

Text #25
ID           : 29
ID in the original source medium     : 4785 (0x12B1)
Format       : PGS
Muxing mode      : zlib
Codec ID         : S_HDMV/PGS
Codec ID/Info        : Picture based subtitle format used on BDs/HD-DVDs
Duration         : 1 h 37 min
Bit rate         : 16.1 kb/s
Frame rate       : 0.193 FPS
Count of elements        : 1130
Stream size      : 11.2 MiB (0%)
Language         : Norwegian
Default          : No
Forced       : No
Original source medium       : Blu-ray

Text #26
ID           : 30
ID in the original source medium     : 4786 (0x12B2)
Format       : PGS
Muxing mode      : zlib
Codec ID         : S_HDMV/PGS
Codec ID/Info        : Picture based subtitle format used on BDs/HD-DVDs
Duration         : 1 h 32 min
Bit rate         : 19.2 kb/s
Frame rate       : 0.207 FPS
Count of elements        : 1146
Stream size      : 12.7 MiB (0%)
Language         : Polish
Default          : No
Forced       : No
Original source medium       : Blu-ray

Text #27
ID           : 31
ID in the original source medium     : 4787 (0x12B3)
Format       : PGS
Muxing mode      : zlib
Codec ID         : S_HDMV/PGS
Codec ID/Info        : Picture based subtitle format used on BDs/HD-DVDs
Duration         : 1 h 35 min
Bit rate         : 21.2 kb/s
Frame rate       : 0.287 FPS
Count of elements        : 1642
Stream size      : 14.4 MiB (0%)
Language         : Portuguese
Default          : No
Forced       : No
Original source medium       : Blu-ray

Text #28
ID           : 32
ID in the original source medium     : 4787 (0x12B3)
Format       : PGS
Muxing mode      : zlib
Codec ID         : S_HDMV/PGS
Codec ID/Info        : Picture based subtitle format used on BDs/HD-DVDs
Duration         : 1 s 84 ms
Bit rate         : 141 kb/s
Frame rate       : 1.845 FPS
Count of elements        : 2
Stream size      : 18.6 KiB (0%)
Language         : Portuguese
Default          : No
Forced       : No
Original source medium       : Blu-ray

Text #29
ID           : 33
ID in the original source medium     : 4788 (0x12B4)
Format       : PGS
Muxing mode      : zlib
Codec ID         : S_HDMV/PGS
Codec ID/Info        : Picture based subtitle format used on BDs/HD-DVDs
Duration         : 1 h 35 min
Bit rate         : 19.2 kb/s
Frame rate       : 0.210 FPS
Count of elements        : 1200
Stream size      : 13.1 MiB (0%)
Language         : Portuguese
Default          : No
Forced       : No
Original source medium       : Blu-ray

Text #30
ID           : 34
ID in the original source medium     : 4789 (0x12B5)
Format       : PGS
Muxing mode      : zlib
Codec ID         : S_HDMV/PGS
Codec ID/Info        : Picture based subtitle format used on BDs/HD-DVDs
Duration         : 1 h 35 min
Bit rate         : 18.2 kb/s
Frame rate       : 0.197 FPS
Count of elements        : 1128
Stream size      : 12.5 MiB (0%)
Language         : Spanish
Default          : No
Forced       : No
Original source medium       : Blu-ray

Text #31
ID           : 35
ID in the original source medium     : 4789 (0x12B5)
Format       : PGS
Muxing mode      : zlib
Codec ID         : S_HDMV/PGS
Codec ID/Info        : Picture based subtitle format used on BDs/HD-DVDs
Duration         : 23 min 53 s
Bit rate         : 251 b/s
Frame rate       : 0.006 FPS
Count of elements        : 8
Stream size      : 44.1 KiB (0%)
Language         : Spanish
Default          : No
Forced       : No
Original source medium       : Blu-ray

Text #32
ID           : 36
ID in the original source medium     : 4790 (0x12B6)
Format       : PGS
Muxing mode      : zlib
Codec ID         : S_HDMV/PGS
Codec ID/Info        : Picture based subtitle format used on BDs/HD-DVDs
Duration         : 1 h 35 min
Bit rate         : 22.0 kb/s
Frame rate       : 0.322 FPS
Count of elements        : 1843
Stream size      : 15.0 MiB (0%)
Language         : Spanish
Default          : No
Forced       : No
Original source medium       : Blu-ray

Text #33
ID           : 37
ID in the original source medium     : 4790 (0x12B6)
Format       : PGS
Muxing mode      : zlib
Codec ID         : S_HDMV/PGS
Codec ID/Info        : Picture based subtitle format used on BDs/HD-DVDs
Duration         : 1 h 30 min
Bit rate         : 397 b/s
Frame rate       : 0.006 FPS
Count of elements        : 34
Stream size      : 263 KiB (0%)
Language         : Spanish
Default          : No
Forced       : No
Original source medium       : Blu-ray

Text #34
ID           : 38
ID in the original source medium     : 4791 (0x12B7)
Format       : PGS
Muxing mode      : zlib
Codec ID         : S_HDMV/PGS
Codec ID/Info        : Picture based subtitle format used on BDs/HD-DVDs
Duration         : 1 h 33 min
Bit rate         : 14.8 kb/s
Frame rate       : 0.201 FPS
Count of elements        : 1122
Stream size      : 9.82 MiB (0%)
Language         : Swedish
Default          : No
Forced       : No
Original source medium       : Blu-ray

Text #35
ID           : 39
ID in the original source medium     : 4792 (0x12B8)
Format       : PGS
Muxing mode      : zlib
Codec ID         : S_HDMV/PGS
Codec ID/Info        : Picture based subtitle format used on BDs/HD-DVDs
Duration         : 1 h 32 min
Bit rate         : 23.1 kb/s
Frame rate       : 0.289 FPS
Count of elements        : 1600
Stream size      : 15.2 MiB (0%)
Language         : Thai
Default          : No
Forced       : No
Original source medium       : Blu-ray

Text #36
ID           : 40
ID in the original source medium     : 4793 (0x12B9)
Format       : PGS
Muxing mode      : zlib
Codec ID         : S_HDMV/PGS
Codec ID/Info        : Picture based subtitle format used on BDs/HD-DVDs
Duration         : 1 h 36 min
Bit rate         : 21.2 kb/s
Frame rate       : 0.306 FPS
Count of elements        : 1774
Stream size      : 14.6 MiB (0%)
Language         : Turkish
Default          : No
Forced       : No
Original source medium       : Blu-ray

Menu
00:00:00.000         : en:Chapter 01
00:08:39.810         : en:Chapter 02
00:20:56.380         : en:Chapter 03
00:25:23.855         : en:Chapter 04
00:37:10.353         : en:Chapter 05
00:42:31.257         : en:Chapter 06
00:53:11.313         : en:Chapter 07
01:00:57.987         : en:Chapter 08
01:08:01.911         : en:Chapter 09
01:14:08.986         : en:Chapter 10
01:16:49.146         : en:Chapter 11
01:18:58.483         : en:Chapter 12
01:22:48.463         : en:Chapter 13
01:24:50.043         : en:Chapter 14
01:31:42.997         : en:Chapter 15
01:34:47.515         : en:Chapter 16



SWEATY BALLZ presents

I.Know.What.You.Did.Last.Summer.1997.2160p.BluRay.x265.10bit.SDR.DTS-HD.MA.TrueHD.7.1.Atmos-SWTYBLZ

Converted from 10 bit HDR to 10 bit SDR using tripple mixed Hable-Reinhard-JJ per scene+frame analysis algorithm

Screenshots are 8bit SDR

悠悠MP4_MP4电影下载_我知道你去年夏天干了什么 I.Know.What.You.Did.Last.Summer.1997.2160p.BluRay.x265.10bit.SDR.DTS-HD.MA.TrueHD.7.1.Atmos-SWTYBLZ 54.72 GB
悠悠MP4_MP4电影下载_我知道你去年夏天干了什么 I.Know.What.You.Did.Last.Summer.1997.2160p.BluRay.x265.10bit.SDR.DTS-HD.MA.TrueHD.7.1.Atmos-SWTYBLZ 54.72 GB
悠悠MP4_MP4电影下载_我知道你去年夏天干了什么 I.Know.What.You.Did.Last.Summer.1997.2160p.BluRay.x265.10bit.SDR.DTS-HD.MA.TrueHD.7.1.Atmos-SWTYBLZ 54.72 GB
悠悠MP4_MP4电影下载_我知道你去年夏天干了什么 I.Know.What.You.Did.Last.Summer.1997.2160p.BluRay.x265.10bit.SDR.DTS-HD.MA.TrueHD.7.1.Atmos-SWTYBLZ 54.72 GB
悠悠MP4_MP4电影下载_我知道你去年夏天干了什么 I.Know.What.You.Did.Last.Summer.1997.2160p.BluRay.x265.10bit.SDR.DTS-HD.MA.TrueHD.7.1.Atmos-SWTYBLZ 54.72 GB
悠悠MP4_MP4电影下载_我知道你去年夏天干了什么 I.Know.What.You.Did.Last.Summer.1997.2160p.BluRay.x265.10bit.SDR.DTS-HD.MA.TrueHD.7.1.Atmos-SWTYBLZ 54.72 GB
悠悠MP4_MP4电影下载_我知道你去年夏天干了什么 I.Know.What.You.Did.Last.Summer.1997.2160p.BluRay.x265.10bit.SDR.DTS-HD.MA.TrueHD.7.1.Atmos-SWTYBLZ 54.72 GB
悠悠MP4_MP4电影下载_我知道你去年夏天干了什么 I.Know.What.You.Did.Last.Summer.1997.2160p.BluRay.x265.10bit.SDR.DTS-HD.MA.TrueHD.7.1.Atmos-SWTYBLZ 54.72 GB

磁力链接

magnet:?xt=urn:btih:581f5ada82160b638c6eaa36c19cdce3652ec149

上传的附件:
最新回复 (0)
返回
本站所有资源均收集自互联网,没有提供影片资源存储, 也未参与录制、上传,若本站收录的资源无意侵犯了您的权益, 请联系邮箱:gogoimgs#gmail.com(#=@)