[2022] [欧美] [恐怖] [x264-1080P] 毁灭 The.Razing.2022.1080p.WEBRip.x264-RARBG 2.08 GB

uump4 2月前



◎片  名 毁灭 The Razing
◎年  代 2022
◎产  地 美国
◎类  别 剧情 / 恐怖
◎语  言 英语
◎上映日期 
◎IMDb评分 
◎IMDb链接  https://www.imdb.com/title/tt13815488/
◎豆瓣评分 /10 from 0 users
◎豆瓣链接 https://movie.douban.com/subject/35906267/
◎片  长 
◎导  演 
◎编  剧 
◎主  演 

◎简  介

  A group of estranged friends gather for a night of tradition. Unfortunately, the evening takes a deadly turn after old secrets and wounds resurface.



Video
ID           : 1
Format       : AVC
Format/Info      : Advanced Video Codec
Format profile       : High@L4.1
Format settings      : CABAC / 4 Ref Frames
Format settings, CABAC       : Yes
Format settings, Reference frames    : 4 frames
Codec ID         : avc1
Codec ID/Info        : Advanced Video Coding
Duration         : 1 h 49 min
Source duration      : 1 h 49 min
Bit rate         : 2 500 kb/s
Width        : 1 918 pixels
Height       : 1 078 pixels
Display aspect ratio     : 16:9
Frame rate mode      : Constant
Frame rate       : 23.976 (23976/1000) FPS
Color space      : YUV
Chroma subsampling       : 4:2:0
Bit depth        : 8 bits
Scan type        : Progressive
Bits/(Pixel*Frame)       : 0.050
Stream size      : 1.91 GiB (92%)
Source stream size       : 1.91 GiB (92%)
Writing library      : x264 core 152 r2851M ba24899
Encoding settings        : cabac=1 / ref=4 / deblock=1:-1:-1 / analyse=0x3:0x113 / me=umh / subme=9 / psy=1 / psy_rd=1.00:0.15 / mixed_ref=1 / me_range=24 / chroma_me=1 / trellis=2 / 8x8dct=1 / cqm=0 / deadzone=21,11 / fast_pskip=1 / chroma_qp_offset=-3 / threads=16 / lookahead_threads=4 / sliced_threads=0 / nr=0 / decimate=1 / interlaced=0 / bluray_compat=0 / constrained_intra=0 / bframes=3 / b_pyramid=2 / b_adapt=2 / b_bias=0 / direct=3 / weightb=1 / open_gop=0 / weightp=2 / keyint=250 / keyint_min=25 / scenecut=40 / intra_refresh=0 / rc_lookahead=50 / rc=2pass / mbtree=1 / bitrate=2500 / ratetol=1.0 / qcomp=0.60 / qpmin=0 / qpmax=69 / qpstep=4 / cplxblur=20.0 / qblur=0.5 / vbv_maxrate=31250 / vbv_bufsize=31250 / nal_hrd=none / filler=0 / ip_ratio=1.40 / aq=3:1.00
Encoded date         : UTC 2022-09-29 21:16:01
Tagged date      : UTC 2022-09-29 21:16:01
Codec configuration box      : avcC

Audio
ID           : 2
Format       : AAC LC
Format/Info      : Advanced Audio Codec Low Complexity
Codec ID         : mp4a-40-2
Duration         : 1 h 49 min
Bit rate mode        : Constant
Bit rate         : 224 kb/s
Channel(s)       : 6 channels
Channel layout       : C L R Ls Rs LFE
Sampling rate        : 48.0 kHz
Frame rate       : 46.875 FPS (1024 SPF)
Compression mode     : Lossy
Stream size      : 175 MiB (8%)
Language         : English
Default          : Yes
Alternate group      : 1
Encoded date         : UTC 2022-09-29 21:16:01
Tagged date      : UTC 2022-09-29 21:16:01



悠悠MP4_MP4电影下载_毁灭 The.Razing.2022.1080p.WEBRip.x264-RARBG 2.08 GB
悠悠MP4_MP4电影下载_毁灭 The.Razing.2022.1080p.WEBRip.x264-RARBG 2.08 GB
悠悠MP4_MP4电影下载_毁灭 The.Razing.2022.1080p.WEBRip.x264-RARBG 2.08 GB

磁力链接

magnet:?xt=urn:btih:21836e2dc05d8eb4c85aa19495441223fc9f294c

上传的附件:
最新回复 (0)
返回
本站所有资源均收集自互联网,没有提供影片资源存储, 也未参与录制、上传,若本站收录的资源无意侵犯了您的权益, 请联系邮箱:gogoimgs#gmail.com(#=@)