[2022] [韩国] [其他] [x264-1080P] 混录磁带 Press.Play.2022.1080p.BluRay.x264-KNiVES 9.41 GB

uump4 2月前

悠悠MP4_MP4电影下载_混录磁带 Press.Play.2022.1080p.BluRay.x264-KNiVES 9.41 GB

◎片  名 混录磁带 Press Play
◎年  代 2022
◎产  地 韩国
◎类  别 音乐
◎语  言 英语
◎上映日期 2022-06-15(德国)
◎IMDb评分  5.9/10 from 611 users
◎IMDb链接  https://www.imdb.com/title/tt11116642/
◎豆瓣评分 /10 from 0 users
◎豆瓣链接 https://movie.douban.com/subject/34952474/
◎片  长 85分钟
◎导  演 Greg Björkman
◎编  剧 
◎主  演 克拉拉·卢嘉 Clara Rugaard
       刘易斯·普尔曼 Lewis Pullman
       丹尼·格洛弗 Danny Glover
       马特·沃尔什 Matt Walsh
       克里斯蒂娜·张 Christina Chang
       蕾瑞卡·冈野 Lyrica Okano

◎简  介

  A young woman, who has a chance to save the love of her life when she discovers that the mixtape they made together can transport her back in time.



Video
ID           : 1
Format       : AVC
Format/Info      : Advanced Video Codec
Format profile       : High@L4.1
Format settings      : CABAC / 4 Ref Frames
Format settings, CABAC       : Yes
Format settings, Reference frames    : 4 frames
Codec ID         : V_MPEG4/ISO/AVC
Duration         : 1 h 24 min
Bit rate         : 12.5 Mb/s
Width        : 1 920 pixels
Height       : 960 pixels
Display aspect ratio     : 2.000
Frame rate mode      : Constant
Frame rate       : 23.976 (24000/1001) FPS
Color space      : YUV
Chroma subsampling       : 4:2:0
Bit depth        : 8 bits
Scan type        : Progressive
Bits/(Pixel*Frame)       : 0.282
Stream size      : 7.40 GiB (79%)
Writing library      : x264 core 164 r3098 7628a56
Encoding settings        : cabac=1 / ref=4 / deblock=1:-3:-3 / analyse=0x3:0x133 / me=umh / subme=9 / psy=1 / psy_rd=1.00:0.00 / mixed_ref=1 / me_range=16 / chroma_me=1 / trellis=2 / 8x8dct=1 / cqm=0 / deadzone=21,11 / fast_pskip=0 / chroma_qp_offset=-2 / threads=30 / lookahead_threads=2 / sliced_threads=0 / nr=0 / decimate=1 / interlaced=0 / bluray_compat=0 / constrained_intra=0 / bframes=3 / b_pyramid=2 / b_adapt=2 / b_bias=0 / direct=3 / weightb=1 / open_gop=0 / weightp=2 / keyint=250 / keyint_min=23 / scenecut=40 / intra_refresh=0 / rc_lookahead=60 / rc=crf / mbtree=1 / crf=16.0 / qcomp=0.60 / qpmin=0 / qpmax=69 / qpstep=4 / ip_ratio=1.40 / aq=1:1.00
Language         : English
Default          : Yes
Forced       : No

Audio
ID           : 2
Format       : DTS XLL
Format/Info      : Digital Theater Systems
Commercial name      : DTS-HD Master Audio
Codec ID         : A_DTS
Duration         : 1 h 24 min
Bit rate mode        : Variable
Bit rate         : 3 351 kb/s
Channel(s)       : 6 channels
Channel layout       : C L R Ls Rs LFE
Sampling rate        : 48.0 kHz
Frame rate       : 93.750 FPS (512 SPF)
Bit depth        : 24 bits
Compression mode     : Lossless
Stream size      : 1.99 GiB (21%)
Language         : English
Default          : Yes
Forced       : No

Text #1
ID           : 3
Format       : PGS
Muxing mode      : zlib
Codec ID         : S_HDMV/PGS
Codec ID/Info        : Picture based subtitle format used on BDs/HD-DVDs
Duration         : 1 h 18 min
Bit rate         : 34.2 kb/s
Count of elements        : 1610
Stream size      : 19.3 MiB (0%)
Language         : German
Default          : No
Forced       : No

Text #2
ID           : 4
Format       : PGS
Muxing mode      : zlib
Codec ID         : S_HDMV/PGS
Codec ID/Info        : Picture based subtitle format used on BDs/HD-DVDs
Duration         : 1 h 23 min
Bit rate         : 23.7 kb/s
Count of elements        : 1510
Stream size      : 14.2 MiB (0%)
Language         : Dutch
Default          : No
Forced       : No

Text #3
ID           : 5
Format       : PGS
Muxing mode      : zlib
Codec ID         : S_HDMV/PGS
Codec ID/Info        : Picture based subtitle format used on BDs/HD-DVDs
Duration         : 58 min 34 s
Bit rate         : 540 b/s
Count of elements        : 22
Stream size      : 232 KiB (0%)
Language         : German
Default          : No
Forced       : No

Menu
00:00:00.000         : en:Chapter 01
00:07:25.028         : en:Chapter 02
00:13:56.502         : en:Chapter 03
00:20:31.147         : en:Chapter 04
00:26:38.096         : en:Chapter 05
00:34:44.833         : en:Chapter 06
00:42:31.591         : en:Chapter 07
00:48:46.799         : en:Chapter 08
00:54:50.412         : en:Chapter 09
01:02:34.125         : en:Chapter 10
01:12:03.110         : en:Chapter 11
01:20:24.278         : en:Chapter 12



Screenshots:
悠悠MP4_MP4电影下载_混录磁带 Press.Play.2022.1080p.BluRay.x264-KNiVES 9.41 GB
KNiVES cuts you with

Press Play (2022)

date.......: today
Reso.......: 1920*960x
Biterate...: 12,5 Mb/s
Source.....: 31,3 Mb/s
sound......: DTS-HD Master Audio
check......: https://www.imdb.com/title/tt11116642/

磁力链接

magnet:?xt=urn:btih:7db433e445b769653805c01834934a3c6956c5e0

上传的附件:
最新回复 (0)
返回
本站所有资源均收集自互联网,没有提供影片资源存储, 也未参与录制、上传,若本站收录的资源无意侵犯了您的权益, 请联系邮箱:gogoimgs#gmail.com(#=@)