[2022] [欧美] [战争] [x264-1080P] 有史以来最棒的啤酒运送 The.Greatest.Beer.Run.Ever.2022.1080p.WEB.h264-TRUFFLE 9.58 GB

uump4 2月前

悠悠MP4_MP4电影下载_有史以来最棒的啤酒运送 The.Greatest.Beer.Run.Ever.2022.1080p.WEB.h264-TRUFFLE 9.58 GB

◎片  名 有史以来最棒的啤酒运送 The Greatest Beer Run Ever / 在前线干杯 / 有史以来最棒的啤酒
◎年  代 2022
◎产  地 美国
◎类  别 剧情 / 战争
◎语  言 英语
◎上映日期 2022-09-10(多伦多电影节) / 2022-09-30(美国/美国网络)
◎IMDb评分  6.5/10 from 444 users
◎IMDb链接  https://www.imdb.com/title/tt10268488/
◎豆瓣评分 /10 from 0 users
◎豆瓣链接 https://movie.douban.com/subject/35134230/
◎片  长 126分钟
◎导  演 彼得·法雷里 Peter Farrelly
◎编  剧 彼得·法雷里 Peter Farrelly
       布莱恩·库瑞 Brian Hayes Currie
       皮特·琼斯 Pete Jones
◎主  演 扎克·埃夫隆 Zac Efron
       罗素·克劳 Russell Crowe
       比尔·默瑞 Bill Murray
       凯尔·艾伦 Kyle Allen
       杰克·皮克金 Jake Picking
       威尔·罗普 Will Ropp
       阿奇·雷诺 Archie Renaux
       乔·阿德勒 Joe Adler
       保罗·安德斯坦 Paul Adelstein
       鲁比·阿什伯恩·瑟金斯 Ruby Ashbourne Serkis
       罗恩·斯穆安伯格 Ron Smoorenburg
       保罗·斯隆 Paul Sloan
       迈克·哈顿 Mike Hatton
       丹尼斯·W·霍尔 Dennis W. Hall
       泰-霍·乐 Thai-Hoa Le
       安德鲁·穆斯卡托 Andrew Muscato

◎简  介

  该片编剧为法雷利和《绿皮书》的联合编剧Brian Currie及Pete Jones(《嘿咻卡》),改编自纪实书《The Greatest Beer Run Ever: A True Story of Friendship Stronger Than War》,讲述John "Chickie" Donohue的真实故事:越南战争时期的1967年,26岁的前美国海军陆战队成员Donohue从纽约出发,去越南寻找正在当兵的三个儿时好友,给他们送去啤酒。



Video
ID           : 1
Format       : AVC
Format/Info      : Advanced Video Codec
Format profile       : High@L4
Format settings      : CABAC / 4 Ref Frames
Format settings, CABAC       : Yes
Format settings, Reference frames    : 4 frames
Codec ID         : V_MPEG4/ISO/AVC
Duration         : 2 h 6 min
Bit rate         : 9 958 kb/s
Width        : 1 920 pixels
Height       : 960 pixels
Display aspect ratio     : 2.000
Frame rate mode      : Constant
Frame rate       : 23.976 (24000/1001) FPS
Color space      : YUV
Chroma subsampling       : 4:2:0
Bit depth        : 8 bits
Scan type        : Progressive
Bits/(Pixel*Frame)       : 0.225
Stream size      : 8.83 GiB (93%)
Language         : English
Default          : Yes
Forced       : No
Color range      : Limited
Color primaries      : BT.709
Transfer characteristics     : BT.709
Matrix coefficients      : BT.709

Audio
ID           : 2
Format       : E-AC-3 JOC
Format/Info      : Enhanced AC-3 with Joint Object Coding
Commercial name      : Dolby Digital Plus with Dolby Atmos
Codec ID         : A_EAC3
Duration         : 2 h 6 min
Bit rate mode        : Constant
Bit rate         : 768 kb/s
Channel(s)       : 6 channels
Channel layout       : L R C LFE Ls Rs
Sampling rate        : 48.0 kHz
Frame rate       : 31.250 FPS (1536 SPF)
Compression mode     : Lossy
Stream size      : 697 MiB (7%)
Language         : English
Service kind         : Complete Main
Default          : Yes
Forced       : No
Complexity index     : 16
Number of dynamic objects    : 15
Bed channel count        : 1 channel
Bed channel configuration    : LFE

Text #1
ID           : 3
Format       : UTF-8
Codec ID         : S_TEXT/UTF8
Codec ID/Info        : UTF-8 Plain Text
Duration         : 1 h 57 min
Bit rate         : 66 b/s
Count of elements        : 1566
Stream size      : 57.3 KiB (0%)
Title        : English
Language         : English
Default          : No
Forced       : No

Text #2
ID           : 4
Format       : UTF-8
Codec ID         : S_TEXT/UTF8
Codec ID/Info        : UTF-8 Plain Text
Duration         : 1 h 57 min
Bit rate         : 73 b/s
Count of elements        : 1751
Stream size      : 63.8 KiB (0%)
Title        : English (SDH)
Language         : English
Default          : No
Forced       : No

Text #3
ID           : 5
Format       : UTF-8
Codec ID         : S_TEXT/UTF8
Codec ID/Info        : UTF-8 Plain Text
Duration         : 2 h 6 min
Bit rate         : 90 b/s
Count of elements        : 1618
Stream size      : 83.8 KiB (0%)
Title        : العربية
Language         : Arabic
Default          : No
Forced       : No

Text #4
ID           : 6
Format       : UTF-8
Codec ID         : S_TEXT/UTF8
Codec ID/Info        : UTF-8 Plain Text
Duration         : 2 h 6 min
Bit rate         : 86 b/s
Count of elements        : 1466
Stream size      : 80.0 KiB (0%)
Title        : български
Language         : Bulgarian
Default          : No
Forced       : No

Text #5
ID           : 7
Format       : UTF-8
Codec ID         : S_TEXT/UTF8
Codec ID/Info        : UTF-8 Plain Text
Duration         : 2 h 6 min
Bit rate         : 53 b/s
Count of elements        : 1519
Stream size      : 49.2 KiB (0%)
Title        : Čeština
Language         : Czech
Default          : No
Forced       : No

Text #6
ID           : 8
Format       : UTF-8
Codec ID         : S_TEXT/UTF8
Codec ID/Info        : UTF-8 Plain Text
Duration         : 2 h 6 min
Bit rate         : 54 b/s
Count of elements        : 1505
Stream size      : 50.3 KiB (0%)
Title        : dansk
Language         : Danish
Default          : No
Forced       : No

Text #7
ID           : 9
Format       : UTF-8
Codec ID         : S_TEXT/UTF8
Codec ID/Info        : UTF-8 Plain Text
Duration         : 2 h 6 min
Bit rate         : 62 b/s
Count of elements        : 1560
Stream size      : 57.5 KiB (0%)
Title        : Deutsch
Language         : German
Default          : No
Forced       : No

Text #8
ID           : 10
Format       : UTF-8
Codec ID         : S_TEXT/UTF8
Codec ID/Info        : UTF-8 Plain Text
Duration         : 2 h 6 min
Bit rate         : 100 b/s
Count of elements        : 1498
Stream size      : 93.4 KiB (0%)
Title        : Ελληνικά
Language         : Greek
Default          : No
Forced       : No

Text #9
ID           : 11
Format       : UTF-8
Codec ID         : S_TEXT/UTF8
Codec ID/Info        : UTF-8 Plain Text
Duration         : 1 h 57 min
Bit rate         : 89 b/s
Count of elements        : 1745
Stream size      : 76.8 KiB (0%)
Title        : English (CC)
Language         : English
Default          : No
Forced       : No

Text #10
ID           : 12
Format       : UTF-8
Codec ID         : S_TEXT/UTF8
Codec ID/Info        : UTF-8 Plain Text
Duration         : 2 h 6 min
Bit rate         : 57 b/s
Count of elements        : 1617
Stream size      : 53.5 KiB (0%)
Title        : Español (Latinoamérica)
Language         : Spanish
Default          : No
Forced       : No

Text #11
ID           : 13
Format       : UTF-8
Codec ID         : S_TEXT/UTF8
Codec ID/Info        : UTF-8 Plain Text
Duration         : 2 h 6 min
Bit rate         : 63 b/s
Count of elements        : 1602
Stream size      : 59.2 KiB (0%)
Title        : Español (España)
Language         : Spanish
Default          : No
Forced       : No

Text #12
ID           : 14
Format       : UTF-8
Codec ID         : S_TEXT/UTF8
Codec ID/Info        : UTF-8 Plain Text
Duration         : 2 h 6 min
Bit rate         : 54 b/s
Count of elements        : 1469
Stream size      : 50.4 KiB (0%)
Title        : eesti
Language         : Estonian
Default          : No
Forced       : No

Text #13
ID           : 15
Format       : UTF-8
Codec ID         : S_TEXT/UTF8
Codec ID/Info        : UTF-8 Plain Text
Duration         : 2 h 6 min
Bit rate         : 53 b/s
Count of elements        : 1539
Stream size      : 49.7 KiB (0%)
Title        : Suomi
Language         : Finnish
Default          : No
Forced       : No

Text #14
ID           : 16
Format       : UTF-8
Codec ID         : S_TEXT/UTF8
Codec ID/Info        : UTF-8 Plain Text
Duration         : 2 h 6 min
Bit rate         : 52 b/s
Count of elements        : 1582
Stream size      : 48.7 KiB (0%)
Title        : Français (France)
Language         : French
Default          : No
Forced       : No

Text #15
ID           : 17
Format       : UTF-8
Codec ID         : S_TEXT/UTF8
Codec ID/Info        : UTF-8 Plain Text
Duration         : 2 h 6 min
Bit rate         : 52 b/s
Count of elements        : 1583
Stream size      : 48.7 KiB (0%)
Title        : Français (Canada)
Language         : French
Default          : No
Forced       : No

Text #16
ID           : 18
Format       : UTF-8
Codec ID         : S_TEXT/UTF8
Codec ID/Info        : UTF-8 Plain Text
Duration         : 2 h 6 min
Bit rate         : 83 b/s
Count of elements        : 1618
Stream size      : 77.5 KiB (0%)
Title        : עברית
Language         : Hebrew
Default          : No
Forced       : No

Text #17
ID           : 19
Format       : UTF-8
Codec ID         : S_TEXT/UTF8
Codec ID/Info        : UTF-8 Plain Text
Duration         : 2 h 6 min
Bit rate         : 166 b/s
Count of elements        : 1619
Stream size      : 154 KiB (0%)
Title        : हिन्दी
Language         : Hindi
Default          : No
Forced       : No

Text #18
ID           : 20
Format       : UTF-8
Codec ID         : S_TEXT/UTF8
Codec ID/Info        : UTF-8 Plain Text
Duration         : 2 h 6 min
Bit rate         : 55 b/s
Count of elements        : 1590
Stream size      : 51.8 KiB (0%)
Title        : magyar
Language         : Hungarian
Default          : No
Forced       : No

Text #19
ID           : 21
Format       : UTF-8
Codec ID         : S_TEXT/UTF8
Codec ID/Info        : UTF-8 Plain Text
Duration         : 2 h 6 min
Bit rate         : 61 b/s
Count of elements        : 1611
Stream size      : 56.5 KiB (0%)
Title        : Bahasa Indonesia
Language         : Indonesian
Default          : No
Forced       : No

Text #20
ID           : 22
Format       : UTF-8
Codec ID         : S_TEXT/UTF8
Codec ID/Info        : UTF-8 Plain Text
Duration         : 2 h 6 min
Bit rate         : 60 b/s
Count of elements        : 1596
Stream size      : 56.3 KiB (0%)
Title        : Italiano
Language         : Italian
Default          : No
Forced       : No

Text #21
ID           : 23
Format       : UTF-8
Codec ID         : S_TEXT/UTF8
Codec ID/Info        : UTF-8 Plain Text
Duration         : 2 h 6 min
Bit rate         : 48 b/s
Count of elements        : 1591
Stream size      : 45.2 KiB (0%)
Title        : 日本語
Language         : Japanese
Default          : No
Forced       : No

Text #22
ID           : 24
Format       : UTF-8
Codec ID         : S_TEXT/UTF8
Codec ID/Info        : UTF-8 Plain Text
Duration         : 2 h 6 min
Bit rate         : 68 b/s
Count of elements        : 1619
Stream size      : 63.8 KiB (0%)
Title        : 한국어
Language         : Korean
Default          : No
Forced       : No

Text #23
ID           : 25
Format       : UTF-8
Codec ID         : S_TEXT/UTF8
Codec ID/Info        : UTF-8 Plain Text
Duration         : 2 h 6 min
Bit rate         : 60 b/s
Count of elements        : 1566
Stream size      : 55.8 KiB (0%)
Title        : lietuvių
Language         : Lithuanian
Default          : No
Forced       : No

Text #24
ID           : 26
Format       : UTF-8
Codec ID         : S_TEXT/UTF8
Codec ID/Info        : UTF-8 Plain Text
Duration         : 2 h 6 min
Bit rate         : 60 b/s
Count of elements        : 1574
Stream size      : 56.2 KiB (0%)
Title        : latviešu
Language         : Latvian
Default          : No
Forced       : No

Text #25
ID           : 27
Format       : UTF-8
Codec ID         : S_TEXT/UTF8
Codec ID/Info        : UTF-8 Plain Text
Duration         : 2 h 6 min
Bit rate         : 60 b/s
Count of elements        : 1611
Stream size      : 55.8 KiB (0%)
Title        : Bahasa Melayu
Language         : Malay
Default          : No
Forced       : No

Text #26
ID           : 28
Format       : UTF-8
Codec ID         : S_TEXT/UTF8
Codec ID/Info        : UTF-8 Plain Text
Duration         : 2 h 6 min
Bit rate         : 53 b/s
Count of elements        : 1297
Stream size      : 49.4 KiB (0%)
Title        : Nederlands
Language         : Dutch
Default          : No
Forced       : No

Text #27
ID           : 29
Format       : UTF-8
Codec ID         : S_TEXT/UTF8
Codec ID/Info        : UTF-8 Plain Text
Duration         : 2 h 6 min
Bit rate         : 55 b/s
Count of elements        : 1423
Stream size      : 50.9 KiB (0%)
Title        : norsk
Language         : Norwegian
Default          : No
Forced       : No

Text #28
ID           : 30
Format       : UTF-8
Codec ID         : S_TEXT/UTF8
Codec ID/Info        : UTF-8 Plain Text
Duration         : 2 h 6 min
Bit rate         : 55 b/s
Count of elements        : 1591
Stream size      : 51.7 KiB (0%)
Title        : polski
Language         : Polish
Default          : No
Forced       : No

Text #29
ID           : 31
Format       : UTF-8
Codec ID         : S_TEXT/UTF8
Codec ID/Info        : UTF-8 Plain Text
Duration         : 2 h 6 min
Bit rate         : 61 b/s
Count of elements        : 1587
Stream size      : 56.9 KiB (0%)
Title        : Português
Language         : Portuguese
Default          : No
Forced       : No

Text #30
ID           : 32
Format       : UTF-8
Codec ID         : S_TEXT/UTF8
Codec ID/Info        : UTF-8 Plain Text
Duration         : 2 h 6 min
Bit rate         : 55 b/s
Count of elements        : 1544
Stream size      : 51.8 KiB (0%)
Title        : Português (Brasil)
Language         : Portuguese
Default          : No
Forced       : No

Text #31
ID           : 33
Format       : UTF-8
Codec ID         : S_TEXT/UTF8
Codec ID/Info        : UTF-8 Plain Text
Duration         : 2 h 6 min
Bit rate         : 99 b/s
Count of elements        : 1615
Stream size      : 92.0 KiB (0%)
Title        : Русский
Language         : Russian
Default          : No
Forced       : No

Text #32
ID           : 34
Format       : UTF-8
Codec ID         : S_TEXT/UTF8
Codec ID/Info        : UTF-8 Plain Text
Duration         : 2 h 6 min
Bit rate         : 55 b/s
Count of elements        : 1584
Stream size      : 51.4 KiB (0%)
Title        : Slovenčina
Language         : Slovak
Default          : No
Forced       : No

Text #33
ID           : 35
Format       : UTF-8
Codec ID         : S_TEXT/UTF8
Codec ID/Info        : UTF-8 Plain Text
Duration         : 2 h 6 min
Bit rate         : 48 b/s
Count of elements        : 1481
Stream size      : 44.5 KiB (0%)
Title        : slovenščina
Language         : Slovenian
Default          : No
Forced       : No

Text #34
ID           : 36
Format       : UTF-8
Codec ID         : S_TEXT/UTF8
Codec ID/Info        : UTF-8 Plain Text
Duration         : 2 h 6 min
Bit rate         : 60 b/s
Count of elements        : 1528
Stream size      : 55.6 KiB (0%)
Title        : Svenska
Language         : Swedish
Default          : No
Forced       : No

Text #35
ID           : 37
Format       : UTF-8
Codec ID         : S_TEXT/UTF8
Codec ID/Info        : UTF-8 Plain Text
Duration         : 2 h 6 min
Bit rate         : 186 b/s
Count of elements        : 1618
Stream size      : 173 KiB (0%)
Title        : தமிழ்
Language         : Tamil
Default          : No
Forced       : No

Text #36
ID           : 38
Format       : UTF-8
Codec ID         : S_TEXT/UTF8
Codec ID/Info        : UTF-8 Plain Text
Duration         : 2 h 6 min
Bit rate         : 184 b/s
Count of elements        : 1618
Stream size      : 171 KiB (0%)
Title        : తెలుగు
Language         : Telugu
Default          : No
Forced       : No

Text #37
ID           : 39
Format       : UTF-8
Codec ID         : S_TEXT/UTF8
Codec ID/Info        : UTF-8 Plain Text
Duration         : 2 h 6 min
Bit rate         : 151 b/s
Count of elements        : 1618
Stream size      : 141 KiB (0%)
Title        :
Language         : Thai
Default          : No
Forced       : No

Text #38
ID           : 40
Format       : UTF-8
Codec ID         : S_TEXT/UTF8
Codec ID/Info        : UTF-8 Plain Text
Duration         : 2 h 6 min
Bit rate         : 58 b/s
Count of elements        : 1600
Stream size      : 54.1 KiB (0%)
Title        : Türkçe
Language         : Turkish
Default          : No
Forced       : No

Text #39
ID           : 41
Format       : UTF-8
Codec ID         : S_TEXT/UTF8
Codec ID/Info        : UTF-8 Plain Text
Duration         : 2 h 6 min
Bit rate         : 91 b/s
Count of elements        : 1609
Stream size      : 84.3 KiB (0%)
Title        : українська
Language         : Ukrainian
Default          : No
Forced       : No

Text #40
ID           : 42
Format       : UTF-8
Codec ID         : S_TEXT/UTF8
Codec ID/Info        : UTF-8 Plain Text
Duration         : 2 h 6 min
Bit rate         : 77 b/s
Count of elements        : 1613
Stream size      : 71.9 KiB (0%)
Title        : Tiếng Việt
Language         : Vietnamese
Default          : No
Forced       : No

Text #41
ID           : 43
Format       : UTF-8
Codec ID         : S_TEXT/UTF8
Codec ID/Info        : UTF-8 Plain Text
Duration         : 2 h 6 min
Bit rate         : 53 b/s
Count of elements        : 1619
Stream size      : 49.8 KiB (0%)
Title        : 廣東話
Language         : Chinese
Default          : No
Forced       : No

Text #42
ID           : 44
Format       : UTF-8
Codec ID         : S_TEXT/UTF8
Codec ID/Info        : UTF-8 Plain Text
Duration         : 2 h 6 min
Bit rate         : 56 b/s
Count of elements        : 1619
Stream size      : 52.7 KiB (0%)
Title        : 中文(繁體)
Language         : Chinese
Default          : No
Forced       : No

Text #43
ID           : 45
Format       : UTF-8
Codec ID         : S_TEXT/UTF8
Codec ID/Info        : UTF-8 Plain Text
Duration         : 2 h 6 min
Bit rate         : 54 b/s
Count of elements        : 1618
Stream size      : 50.4 KiB (0%)
Title        : 中文(简体)
Language         : Chinese
Default          : No
Forced       : No



Screenshots:
悠悠MP4_MP4电影下载_有史以来最棒的啤酒运送 The.Greatest.Beer.Run.Ever.2022.1080p.WEB.h264-TRUFFLE 9.58 GB
The.Greatest.Beer.Run.Ever.2022.1080p.WEB.h264-TRUFFLE
2022-09-30
title: The Greatest Beer Run Ever
source: apple.com
size: 9.5 GiB
runtime: 02:06:57.318
resolution: 1920 x 960
bitrate: 10,734 kb/s
audio: E-AC-3 @ 768 kb/s (5.1) (Dolby Atmos) / English
subs: English, English (SDH), Arabic, Bulgarian, Czech, Danish, German, Greek, English (CC),
Spanish (Latinoam  rica), Spanish (Espa  a), Estonian, Finnish, French (France), French
(Canada), Hebrew, Hindi, Hungarian, Indonesian, Italian, Japanese, Korean, Lithuanian,
Latvian, Malay, Dutch, Norwegian, Polish, Portuguese, Portuguese (Brasil), Russian,
Slovak, Slovenian, Swedish, Tamil, Telugu, Thai, Turkish, Ukrainian, Vietnamese,
Chinese, Chinese            , Chinese
url: https://www.imdb.com/title/tt10268488/

磁力链接

magnet:?xt=urn:btih:5a547a8585d4dd88e884e33326bb40f671a2b3a7

上传的附件:
最新回复 (0)
返回
本站所有资源均收集自互联网,没有提供影片资源存储, 也未参与录制、上传,若本站收录的资源无意侵犯了您的权益, 请联系邮箱:gogoimgs#gmail.com(#=@)